Торрент файл
скачать торрент магнет ссылка Добавлен: 22 янв 2012, 14:55
Размер: 1.45 ГБ
Сидеров: 29
Личеров: 6
Автор

СообщениеДобавлено: 22 янв 2012, 14:55 

Не в сети
Супермодератор
Аватара пользователя
Дата регистрации:
11 апр 2010, 18:10
Спасибо: 5802 / 7
Сообщения: 56779
Эпидемия / Outbreak


Перевод: Профессиональный (полное дублирование), cубтитры: отсутствуют
Формат: HDRip-AVC, MKV, H.264, AC3
Страна: США
Режиссер: Вольфганг Петерсен
Жанр: фантастика, триллер, драма
Продолжительность: 02:08:15
Год выпуска: 1995

В ролях: Дастин Хоффман, Рене Руссо, Морган Фриман, Кевин Спейси, Кьюба Гудинг мл., Дональд Сазерленд, Патрик Демпси, Малик Боуэнс, Сьюзэн Ли Хоффман

Описание: Из Африки в Америку с зараженной обезьянкой попадает смертельный вирус. Специалисты-эпидемиологи из НИИ инфекционных заболеваний армии США, в числе которых полковник Сэм Дэниелс, срочно вылетают в эпицентр заражения. Двое из высших военных руководителей — начальники Сэма — скрывают от него, что им известен этот вирус, который они выводили несколько лет. И, более того, даже разработали сыворотку, способную обезвредить вирус. Для предотвращения страшной эпидемии нужна сыворотка, которую можно получить лишь из крови первоначального носителя — той самой обезьянки. Дело осложняется тем, что место ее нахождения неизвестно, а счет идет на часы.



Видео: 896 x 504 (1:78:1), 23.976 fps, AVC, х264, High@L4.1, ~ 1238 Kbps, 0.114 bit/pixel
Аудио: 48 kHz, AC3 Dolby Digital, 3/2 (L,C,R,l,r) + LFE ch, ~384 kbps


Рип: jeenart

General
Unique ID: 206131873285221182512893275881271574180 (0x9B138E02799456C28E65156DF85DBEA4)
Complete name: F:\Мои релизы\Все релизы 10\epidemija_[tfile.ru].mkv
Format: Matroska
File size: 1.45 GiB
Duration: 2h 8mn
Overall bit rate: 1 623 Kbps
Encoded date: UTC 2011-08-11 07:18:53
Writing application: mkvmerge v4.6.0 ('Still Crazy After All These Years') сборка от Apr1 2011 21:01:49
Writing library: libebml v1.2.0 + libmatroska v1.1.0

Video
ID: 1
Format: AVC
Format/Info: Advanced Video Codec
Format profile: High@L4.1
Format settings, CABAC: Yes
Format settings, ReFrames: 4 frames
Format settings, GOP: M=4, N=32
Codec ID: V_MPEG4/ISO/AVC
Duration: 2h 8mn
Bit rate: 1 238 Kbps
Width: 896 pixels
Height: 504 pixels
Display aspect ratio: 16:9
Frame rate: 23.976 fps
Color space: YUV
Chroma subsampling: 4:2:0
Bit depth: 8 bits
Scan type: Progressive
Bits/(Pixel*Frame): 0.114
Stream size: 1.08 GiB (74%)
Writing library: x264 core 115 r1937 aa21558
Encoding settings: cabac=1 / ref=3 / deblock=1:-1:-1 / analyse=0x3:0x113 / me=hex / subme=7 / psy=1 / psy_rd=1.00:0.10 / mixed_ref=1 / me_range=16 / chroma_me=1 / trellis=1 / 8x8dct=1 / cqm=0 / deadzone=21,11 / fast_pskip=1 / chroma_qp_offset=-3 / threads=6 / sliced_threads=0 / nr=0 / decimate=1 / interlaced=0 / bluray_compat=0 / constrained_intra=0 / bframes=3 / b_pyramid=2 / b_adapt=1 / b_bias=0 / direct=1 / weightb=1 / open_gop=0 / weightp=2 / keyint=250 / keyint_min=23 / scenecut=40 / intra_refresh=0 / rc_lookahead=40 / rc=2pass / mbtree=1 / bitrate=1238 / ratetol=1.0 / qcomp=0.60 / qpmin=0 / qpmax=69 / qpstep=4 / cplxblur=20.0 / qblur=0.5 / ip_ratio=1.40 / aq=1:1.00

Audio
ID: 2
Format: AC-3
Format/Info: Audio Coding 3
Mode extension: CM (complete main)
Codec ID: A_AC3
Duration: 2h 8mn
Bit rate mode: Constant
Bit rate: 384 Kbps
Channel(s): 6 channels
Channel positions: Front: L C R, Side: L R, LFE
Sampling rate: 48.0 KHz
Bit depth: 16 bits
Compression mode: Lossy
Stream size: 352 MiB (24%)
























Поделиться:




реклама партнёра


Вернуться к началу
 Профиль Отправить личное сообщение  
 
   Похожие торренты   Автор   Торрент   Размер 
В этой теме нет новых непрочитанных сообщений. Эпидемия / Outbreak [триллер, драма, фантастика, боевик, 1995] BDRip 1080p, 2Dub+Sub

salma3

149 | 20

7.75 ГБ

В этой теме нет новых непрочитанных сообщений. Недооформлен Самолет президента / Air Force One (Вольфганг Петерсен) [1997, боевик, триллер, драма, приключения, HDRip-AVC] DUB+MVO+AVO / Фильмы HDRip Данный торрент является блокированным, причина: недооформленный торрент

Kochesov

11 | 1

3.57 ГБ

В этой теме нет новых непрочитанных сообщений. Смертельный захват / Deadly Outbreak [Боевик, 1995] DVDRip, Avo [Гаврилов]

salma3

79 | 13

1.41 ГБ

В этой теме нет новых непрочитанных сообщений. Лекарство / The Cure / Virus Outbreak: Lautloser Killer [фантастика, боевик, триллер, 2014] BDRip 1080p, Mvo

salma3

69 | 5

4.92 ГБ

В этой теме нет новых непрочитанных сообщений. Голографический человек / Hologram Man [Фантастика, боевик, триллер, 1995] HDRip, Dvo [НТВ]

salma3

55 | 3

1.37 ГБ

В этой теме нет новых непрочитанных сообщений. Немезида 2: Невидимка / Nemesis 2: Nebula [фантастика, боевик, триллер, 1995] HDRip, Avo

salma3

47 | 5

1.37 ГБ

В этой теме нет новых непрочитанных сообщений. Там внутри / Underneath [Триллер, драма, криминал, 1995] HDRip, Mvo

salma3

38 | 1

1.46 ГБ


Начать новую тему Ответить на тему  [ 1 сообщение ] 




Для Мосгорсуда, Роскомнадзора и рекламодателей:: mosgorsud-torrent[собачка]yandex.ru