Торрент файл
скачать торрент магнет ссылка Добавлен: 22 янв 2012, 14:54
Размер: 2.2 ГБ
Сидеров: 7
Личеров: 8
Автор

СообщениеДобавлено: 22 янв 2012, 14:54 

Не в сети
Супермодератор
Аватара пользователя
Дата регистрации:
11 апр 2010, 18:10
Спасибо: 5801 / 7
Сообщения: 56779
Человек со звезды / Starman

Перевод: Профессиональный (полное дублирование), cубтитры: Русские (полные, отключаемые), Английские (полные, отключаемые)
Формат: HDRip, MKV, H.264, MP3
Страна: США
Режиссер: Джон Карпентер
Жанр: фантастика, драма, мелодрама, приключения
Продолжительность: 01:54:58
Год выпуска: 1984
В ролях: Джефф Бриджес, Карен Аллен, Чарльз Мартин Смит, Ричард Джэкел, Роберт Фален, Тони Эдвардс, Джон Уолтер Дэвис, Тед Уайт, Дирк Блокер, М. К. Гейни
Описание: Человек со звезды прилетает на Землю с единственной целью: выяснить, что такое любовь. Он приземляется где-то в штате Висконсин и решает принять облик покойного мужа скромной вдовы Дженни Хайден. Он узнает от Дженни, что такое любовь, и ему уже не хочется возвращаться на корабль. Но его друзья-инопланетяне считают, что, оставшись, Человек со звезды погибнет. К тому же, странным воскрешением мужа Дженни интересуется полиция.



Видео: 1280x528 (2,40:1), 23,976 fps, MPEG4 AVC (х264), High@L4.1 ~2464 kbps avg, 0.152 bit/pixel
Аудио#1:Русский: MPEG Layer 3, 2 ch, ~128.00 kbps avg [Профессиональный (полное дублирование)]
Аудио#2:Русский: 48 kHz, AC-3, 2 ch, ~192.00 kbps avg [Любительский (одноголосый)]



Автор РИПа:
Общее
Уникальный идентификатор : 173795266489089491494604084840217980598 (0x82BFC033EE6DBAA18A0C9B5DCC3C2EB6)
Полное имя : f:\Downloads\starman_[tfile.ru].mkv
Формат : Matroska
Размер файла : 2,20 Гбайт
Продолжительность : 1 ч. 54 м.
Общий поток : 2744 Кбит/сек
Дата кодирования : UTC 2011-08-11 06:27:27
Программа кодирования : mkvmerge v4.6.0 ('Still Crazy After All These Years') сборка от Mar 10 2011 02:50:32
Библиотека кодирования : libebml v1.2.0 + libmatroska v1.1.0

Видео
Идентификатор : 1
Формат : AVC
Формат/Информация : Advanced Video Codec
Профиль формата : High@L4.1
Параметр CABAC формата : Да
Параметр ReFrames формата : 3 кадра
Режим смешивания : Header stripping
Идентификатор кодека : V_MPEG4/ISO/AVC
Продолжительность : 1 ч. 54 м.
Битрейт : 2464 Кбит/сек
Ширина : 1280 пикс.
Высота : 528 пикс.
Соотношение сторон : 2,40:1
Режим частоты кадров : Переменный
Частота кадров : 23,976 кадр/сек
Цветовое пространство : YUV
Подвыборка цветности : 4:2:0
Битовая глубина : 8 бит
Тип развёртки : Прогрессивная
Бит/(Пиксели*Кадры) : 0.152
Размер потока : 1,90 Гбайт (86%)
Библиотека кодирования : x264 core 116 r2019M 9cc407d
Настройки программы : cabac=1 / ref=3 / deblock=1:0:0 / analyse=0x3:0x133 / me=hex / subme=7 / psy=1 / psy_rd=1.00:0.20 / mixed_ref=1 / me_range=16 / chroma_me=1 / trellis=1 / 8x8dct=1 / cqm=0 / deadzone=21,11 / fast_pskip=1 / chroma_qp_offset=-3 / threads=7 / sliced_threads=0 / nr=0 / decimate=1 / interlaced=0 / bluray_compat=0 / constrained_intra=0 / bframes=3 / b_pyramid=1 / b_adapt=2 / b_bias=0 / direct=3 / weightb=1 / open_gop=0 / weightp=2 / keyint=230 / keyint_min=23 / scenecut=40 / intra_refresh=0 / rc=2pass / mbtree=0 / bitrate=2464 / ratetol=1.0 / qcomp=0.60 / qpmin=10 / qpmax=51 / qpstep=4 / cplxblur=20.0 / qblur=0.5 / ip_ratio=1.40 / pb_ratio=1.30 / aq=1:1.00
Язык : English

Аудио #1
Идентификатор : 2
Формат : MPEG Audio
Версия формата : Version 1
Профиль формата : Layer 3
Режим : Joint stereo
Режим смешивания : Header stripping
Идентификатор кодека : A_MPEG/L3
Идентификатор кодека/Подсказка : MP3
Продолжительность : 1 ч. 54 м.
Вид битрейта : Постоянный
Битрейт : 128 Кбит/сек
Каналы : 2 канала
Частота : 48,0 КГц
Метод сжатия : С потерями
Размер потока : 105 Мбайт (5%)
Заголовок : DUB
Язык : Russian

Аудио #2
Идентификатор : 3
Формат : AC-3
Формат/Информация : Audio Coding 3
Расширение режима : CM (complete main)
Режим смешивания : Header stripping
Идентификатор кодека : A_AC3
Продолжительность : 1 ч. 54 м.
Вид битрейта : Постоянный
Битрейт : 192 Кбит/сек
Каналы : 2 канала
Расположение каналов : Front: L R
Частота : 48,0 КГц
Битовая глубина : 16 бит
Метод сжатия : С потерями
Задержка видео : 1 с. 0 мс.
Размер потока : 158 Мбайт (7%)
Заголовок : VO
Язык : Russian

Текст #1
Идентификатор : 4
Формат : UTF-8
Идентификатор кодека : S_TEXT/UTF8
Идентификатор кодека/Информация : UTF-8 Plain Text
Язык : Russian

Текст #2
Идентификатор : 5
Формат : UTF-8
Идентификатор кодека : S_TEXT/UTF8
Идентификатор кодека/Информация : UTF-8 Plain Text
Язык : English













Поделиться:




реклама партнёра


Вернуться к началу
 Профиль Отправить личное сообщение  
 
   Похожие торренты   Автор   Торрент   Размер 
В этой теме нет новых непрочитанных сообщений. Человек – швейцарский нож / Swiss Army Man [фэнтези, драма, мелодрама, комедия, приключения, 2016] HDRip, Dub [iTunes]

marya111

648 | 13

1.45 ГБ

В этой теме нет новых непрочитанных сообщений. Человек – швейцарский нож / Swiss Army Man [фэнтези, драма, мелодрама, комедия, приключения, 2016] HDRip, Dub [чистый звук]

salma3

8435 | 403

1.37 ГБ

В этой теме нет новых непрочитанных сообщений. Человек – швейцарский нож / Swiss Army Man [Мюзикл, фэнтези, драма, мелодрама, комедия, приключения, 2016] HDRip, Dub [iTunes]

marya111

0 | 0

745.5 МБ

В этой теме нет новых непрочитанных сообщений. Виноваты звезды / The Fault in Our Stars [драма, мелодрама, 2014] HDRip, Dub [Лицензия]

Dracon

30 | 2

2.05 ГБ

В этой теме нет новых непрочитанных сообщений. Человек из Рио / L'Homme de Rio [комедия, мелодрама, приключения, боевик, 1964] HDRip, Dub

salma3

32 | 5

1.46 ГБ

В этой теме нет новых непрочитанных сообщений. Пурпурный дождь / Purple Rain [мюзикл, драма, мелодрама, музыка, 1984] HDRip, Dub

salma3

22 | 2

1.46 ГБ

В этой теме нет новых непрочитанных сообщений. Отцепись от звезд / Срывая звёзды / Unhook the Stars [мелодрама, 1996] HDRip, Mvo

salma3

13 | 2

1.44 ГБ


Начать новую тему Ответить на тему  [ 1 сообщение ] 




Для Мосгорсуда, Роскомнадзора и рекламодателей:: mosgorsud-torrent[собачка]yandex.ru