Торрент файл
скачать торрент магнет ссылка Добавлен: 22 янв 2012, 14:53
Размер: 1.46 ГБ
Сидеров: 72
Личеров: 8
Автор

СообщениеДобавлено: 22 янв 2012, 14:53 

Не в сети
Супермодератор
Аватара пользователя
Дата регистрации:
11 апр 2010, 18:10
Спасибо: 5801 / 7
Сообщения: 56779
Уязвимая плоть / Flesh Wounds

Перевод: Профессиональный (многоголосый, закадровый), cубтитры: отсутствуют

Формат: HDRip-AVC, MKV, H.264, AC3

Страна: США

Режиссер: Дэн Гарсиа

Жанр: фантастика, боевик

Продолжительность: 01:20:04

Год выпуска: 2011

В ролях: Кевин Сорбо, Хезер Мэри Марсден, Боким Вудбайн, Кирк Кеппер, Джонни Ли, Бо Брассо, Калеб Микаэльсон, Шеннон Хэнд, Фабиан С. Морено, Натан Алан Томас

Описание: Проводя секретные испытания на военном объекте, группа ученых подвергается нападению невидимого врага. Отправившись на поиски пропавших испытателей, команда спецназа во главе с лейтенантом Тайлером обнаруживает, что все они мертвы и сильно изувечены. Подозрения падают на террористов, однако вскоре выясняется, что они имеют дело с гораздо более опасным врагом…

[/field]

Видео: 1152x648 (16:9), 23.976 fps, AVC, х264, High@L4.0, ~ 2 385 Kbps0.133 bit/pixel
Аудио: 48 kHz, AC3 Dolby Digital, 2/0 (L,R) ch, ~ 192 kbps avg

Доп. информация: Премьера (мир) 26 июля 2011

General
Unique ID: 212500280267266615415047932872754779513 (0x9FDE10B738BFA88DAEF35DB50D18D579)
Complete name: E:\Загрузки\Flesh.Wounds.2011.Bentley.mkv
Format: Matroska
File size: 1.46 GiB
Duration: 1h 21mn
Overall bit rate: 2 574 Kbps
Encoded date: UTC 2011-07-21 04:51:11
Writing application: mkvmerge v4.6.0 ('Still Crazy After All These Years') сборка от Apr1 2011 21:01:49
Writing library: libebml v1.2.0 + libmatroska v1.1.0

Video
ID: 1
Format: AVC
Format/Info: Advanced Video Codec
Format profile: High@L4.0
Format settings, CABAC: Yes
Format settings, ReFrames: 8 frames
Codec ID: V_MPEG4/ISO/AVC
Duration: 1h 21mn
Bit rate: 2 385 Kbps
Width: 1 152 pixels
Height: 648 pixels
Display aspect ratio: 16:9
Frame rate: 23.976 fps
Color space: YUV
Chroma subsampling: 4:2:0
Bit depth: 8 bits
Scan type: Progressive
Bits/(Pixel*Frame): 0.133
Stream size: 1.32 GiB (91%)
Title: Bentley
Writing library: x264 core 115 r1937 aa21558
Encoding settings: cabac=1 / ref=8 / deblock=1:-1:-1 / analyse=0x3:0x133 / me=umh / subme=7 / psy=1 / psy_rd=1.00:0.10 / mixed_ref=1 / me_range=16 / chroma_me=1 / trellis=2 / 8x8dct=1 / cqm=0 / deadzone=21,11 / fast_pskip=0 / chroma_qp_offset=-3 / threads=6 / sliced_threads=0 / nr=0 / decimate=1 / interlaced=0 / bluray_compat=0 / constrained_intra=0 / bframes=3 / b_pyramid=2 / b_adapt=2 / b_bias=0 / direct=3 / weightb=1 / open_gop=0 / weightp=2 / keyint=250 / keyint_min=23 / scenecut=40 / intra_refresh=0 / rc_lookahead=50 / rc=2pass / mbtree=1 / bitrate=2385 / ratetol=1.0 / qcomp=0.60 / qpmin=0 / qpmax=69 / qpstep=4 / cplxblur=20.0 / qblur=0.5 / ip_ratio=1.40 / aq=1:1.00
Language: English

Audio
ID: 2
Format: AC-3
Format/Info: Audio Coding 3
Mode extension: CM (complete main)
Codec ID: A_AC3
Duration: 1h 21mn
Bit rate mode: Constant
Bit rate: 192 Kbps
Channel(s): 2 channels
Channel positions: Front: L R
Sampling rate: 48.0 KHz
Bit depth: 16 bits
Compression mode: Lossy
Stream size: 111 MiB (7%)
Language: Russian

















Поделиться:




реклама партнёра


Вернуться к началу
 Профиль Отправить личное сообщение  
 
   Похожие торренты   Автор   Торрент   Размер 
В этой теме нет новых непрочитанных сообщений. Плоть от плоти / Плоть и кости / Flesh and Bone [Триллер, 1993] DVDRip, Avo

salma3

15 | 4

2.05 ГБ

В этой теме нет новых непрочитанных сообщений. Fresh Flesh / Свежая Плоть (2016) WEB-DL

Dile-1

4 | 1

905.59 МБ

В этой теме нет новых непрочитанных сообщений. Лишняя плоть / Excess Flesh [триллер, драма, 2015] WEBDLRip, Dvo

salma3

790 | 18

701.21 МБ

В этой теме нет новых непрочитанных сообщений. Лишняя плоть / Excess Flesh [триллер, драма, 2015] BDRip, dvo

marya111

0 | 0

1.46 ГБ

В этой теме нет новых непрочитанных сообщений. Лишняя плоть / Excess Flesh [триллер, драма, 2015] BDRemux 1080p, Dvo

salma3

24 | 14

17.32 ГБ

В этой теме нет новых непрочитанных сообщений. Плоть и кости / Flesh and Bone [S01] (Алик Сахаров, Адам Дэвидсон, Джошуа Марстон) [драма, 2015] HDTVRip [Amedia]

Dracon

980 | 675

5.48 ГБ

В этой теме нет новых непрочитанных сообщений. Плоть и кости / Flesh and Bone [S01] (Алик Сахаров, Адам Дэвидсон, Джошуа Марстон) [2015, драма, HDTVRip | NewStudio]

Dracon

60 | 40

5.44 ГБ


Начать новую тему Ответить на тему  [ 1 сообщение ] 




Для Мосгорсуда, Роскомнадзора и рекламодателей:: mosgorsud-torrent[собачка]yandex.ru