Торрент файл
скачать торрент магнет ссылка Добавлен: 22 янв 2012, 14:52
Размер: 2.22 ГБ
Сидеров: 66
Личеров: 12
Автор

СообщениеДобавлено: 22 янв 2012, 14:52 

Не в сети
Супермодератор
Аватара пользователя
Дата регистрации:
11 апр 2010, 18:10
Спасибо: 5802 / 7
Сообщения: 56779
Близкие контакты третьей степени / Close Encounters of the Third Kind

Перевод: Профессиональный (многоголосый, закадровый), cубтитры: Русские (полные, отключаемые)
Формат: HDRip, MKV, H.264, AC3
Страна: США
Режиссер: Стивен Спилберг
Жанр: фантастика
Продолжительность: 02:17:14
Год выпуска: 1977
В ролях: Ричард Дрейфусс, Франсуа Трюффо, Тери Гарр, Мелинда Диллон, Боб Бэлабан, Дж. Патрик МакНамара, Уоррен Дж. Кеммерлинг, Робертс Блоссом, Филип Доддс, Кэри Гуффи
Описание: Сбои в подаче электроэнергии, возвращение из ниоткуда самолетов, исчезнувших в 1945 году, обескураживают ученых. Наименее скептичные люди науки расценивают эти явления, как прямое доказательство существования разумной инопланетной формы жизни. Рой Неари едет в пустыню, где были найдены самолеты, чтобы провести собственное расследование. Ночью его автомобиль застревает на шоссе. Неожиданно в темном небе появляется загадочный источник яркого света. Всего на мгновенье Неари попадает под его лучи, несущие информацию из далеких миров. После контакта с внеземной цивилизацией Рой оказывается во власти странных видений, и это происходит не только с ним…

Видео: 1280x544 (2,35:1), 23,976 fps, MPEG4 AVC (х264), High@L4.1 ~1560 kbps avg, 0.093 bit/pixel
Аудио#1:Русский: 48 kHz, AC-3, 6 ch, ~384.00 kbps avg [Профессиональный (многоголосый, закадровый)]
Аудио#2:Английский: 48 kHz, AC-3, 6 ch, ~384.00 kbps avg [Оригинал]


Автор РИПа:
Награды:

Британская академия, 1979 год
Победитель (1):
Лучшая работа художника-постановщика
Номинации (8 ):
Лучший фильм
Лучшая мужская роль второго плана (Франсуа Трюффо)
Лучший режиссер (Стивен Спилберг)
Лучший сценарий
Лучшая работа оператора
Лучший звук
Лучший монтаж
Премия имени Энтони Эскуита за достижения в создании музыки к фильму

Оскар, 1978 год
Победитель (2):
Лучшая работа оператора
Награда за особые достижения — «за монтаж звуковых эффектов»
Номинации (7):
Лучшая женская роль второго плана (Мелинда Диллон)
Лучший режиссер (Стивен Спилберг)
Лучшие декорации
Лучший звук
Лучший монтаж
Лучшие визуальные эффекты
Лучший оригинальный саундтрек

Золотой глобус, 1978 год
Номинации (4):
Лучший фильм (драма)
Лучший режиссер (Стивен Спилберг)
Лучший сценарий
Лучший саундтрек

Общее
Уникальный идентификатор : 177669762842440094872936608541487048634 (0x85A9F39F2400C0CA8251B24FC44EA7BA)
Полное имя : f:\Downloads\close_encounters_of_the_third_kind_[tfile.ru].mkv
Формат : Matroska
Размер файла : 2,22 Гбайт
Продолжительность : 2 ч. 17 м.
Общий поток : 2315 Кбит/сек
Дата кодирования : UTC 2011-08-17 03:34:34
Программа кодирования : mkvmerge v4.6.0 ('Still Crazy After All These Years') сборка от Mar 10 2011 02:50:32
Библиотека кодирования : libebml v1.2.0 + libmatroska v1.1.0

Видео
Идентификатор : 1
Формат : AVC
Формат/Информация : Advanced Video Codec
Профиль формата : High@L4.1
Параметр CABAC формата : Да
Параметр ReFrames формата : 3 кадра
Режим смешивания : Header stripping
Идентификатор кодека : V_MPEG4/ISO/AVC
Продолжительность : 2 ч. 17 м.
Битрейт : 1560 Кбит/сек
Ширина : 1280 пикс.
Высота : 544 пикс.
Соотношение сторон : 2,35:1
Режим частоты кадров : Переменный
Частота кадров : 23,976 кадр/сек
Цветовое пространство : YUV
Подвыборка цветности : 4:2:0
Битовая глубина : 8 бит
Тип развёртки : Прогрессивная
Бит/(Пиксели*Кадры) : 0.093
Размер потока : 1,44 Гбайт (65%)
Библиотека кодирования : x264 core 116 r2019M 9cc407d
Настройки программы : cabac=1 / ref=3 / deblock=1:0:0 / analyse=0x3:0x133 / me=hex / subme=7 / psy=1 / psy_rd=1.00:0.20 / mixed_ref=1 / me_range=16 / chroma_me=1 / trellis=1 / 8x8dct=1 / cqm=0 / deadzone=21,11 / fast_pskip=1 / chroma_qp_offset=-3 / threads=7 / sliced_threads=0 / nr=0 / decimate=1 / interlaced=0 / bluray_compat=0 / constrained_intra=0 / bframes=3 / b_pyramid=1 / b_adapt=2 / b_bias=0 / direct=3 / weightb=1 / open_gop=0 / weightp=2 / keyint=230 / keyint_min=23 / scenecut=40 / intra_refresh=0 / rc_lookahead=0 / rc=2pass / mbtree=0 / bitrate=1560 / ratetol=1.0 / qcomp=0.60 / qpmin=10 / qpmax=51 / qpstep=4 / cplxblur=20.0 / qblur=0.5 / vbv_maxrate=31250 / vbv_bufsize=31250 / nal_hrd=none / ip_ratio=1.40 / pb_ratio=1.30 / aq=1:1.00
Язык : English

Аудио #1
Идентификатор : 2
Формат : AC-3
Формат/Информация : Audio Coding 3
Расширение режима : CM (complete main)
Режим смешивания : Header stripping
Идентификатор кодека : A_AC3
Продолжительность : 2 ч. 17 м.
Вид битрейта : Постоянный
Битрейт : 384 Кбит/сек
Каналы : 6 каналов
Расположение каналов : Front: L C R, Side: L R, LFE
Частота : 48,0 КГц
Битовая глубина : 16 бит
Метод сжатия : С потерями
Размер потока : 377 Мбайт (17%)
Заголовок : MVO
Язык : Russian

Аудио #2
Идентификатор : 3
Формат : AC-3
Формат/Информация : Audio Coding 3
Расширение режима : CM (complete main)
Режим смешивания : Header stripping
Идентификатор кодека : A_AC3
Продолжительность : 2 ч. 17 м.
Вид битрейта : Постоянный
Битрейт : 384 Кбит/сек
Каналы : 6 каналов
Расположение каналов : Front: L C R, Side: L R, LFE
Частота : 48,0 КГц
Битовая глубина : 16 бит
Метод сжатия : С потерями
Размер потока : 377 Мбайт (17%)
Язык : English

Текст
Идентификатор : 4
Формат : UTF-8
Идентификатор кодека : S_TEXT/UTF8
Идентификатор кодека/Информация : UTF-8 Plain Text
Язык : Russian












Поделиться:




реклама партнёра


Вернуться к началу
 Профиль Отправить личное сообщение  
 
   Похожие торренты   Автор   Торрент   Размер 
В этой теме нет новых непрочитанных сообщений. Близкие контакты третьей степени / Close Encounters of the Third Kind [фантастика, драма, приключения, 1977] HDRip, Mvo

salma3

148 | 66

1.45 ГБ

В этой теме нет новых непрочитанных сообщений. Близкие контакты. Ядерный кошмар / Close encounters [документальный, космос, НЛО, 2016] SATRip, Dub

salma3

17 | 2

267.27 МБ

В этой теме нет новых непрочитанных сообщений. Близкие контакты. Ужас на ферме / Close encounters [документальный, космос, НЛО, 2016] SATRip, Dub

salma3

14 | 2

265.92 МБ

В этой теме нет новых непрочитанных сообщений. Близкие контакты. Сезон охоты / Close encounters [документальный, космос, НЛО, 2016] SATRip, Dub

salma3

18 | 2

388.82 МБ

В этой теме нет новых непрочитанных сообщений. Большой и добрый великан / The BFG (Стивен Спилберг) [2016, Фэнтези, экранизация, приключения, семейный, HDRip | Line] Dub

marya111

642 | 54

746.05 МБ

В этой теме нет новых непрочитанных сообщений. Большой и добрый великан / The BFG (Стивен Спилберг) [2016, Фэнтези, экранизация, приключения, семейный, HDRip-AVC | Line]

marya111

571 | 24

1.45 ГБ

В этой теме нет новых непрочитанных сообщений. Шпионский мост / Bridge of Spies (Стивен Спилберг) [2015, триллер, драма, биография, BDRip-AVC | Чистый звук] Dub

PriZraK

5246 | 204

2.87 ГБ


Начать новую тему Ответить на тему  [ 1 сообщение ] 




Для Мосгорсуда, Роскомнадзора и рекламодателей:: mosgorsud-torrent[собачка]yandex.ru