Торрент файл
скачать торрент магнет ссылка Добавлен: 22 янв 2012, 14:51
Размер: 1.46 ГБ
Сидеров: 89
Личеров: 10
Автор

СообщениеДобавлено: 22 янв 2012, 14:51 

Не в сети
Супермодератор
Аватара пользователя
Дата регистрации:
11 апр 2010, 18:10
Спасибо: 5802 / 7
Сообщения: 56779
Планета страха / Planet Terror

Перевод: Профессиональный (полное дублирование), cубтитры: отсутствуют

Формат: HDRip-AVC, MKV, H.264, AC3

Страна: США

Режиссер: Роберт Родригес

Жанр: ужасы, фантастика, боевик, триллер, комедия, приключения

Продолжительность: 01:45:33

Год выпуска: 2007

В ролях: Роуз МакГоун, Брюс Уиллис, Квентин Тарантино, Фредди Родригес, Марли Шелтон, Джош Бролин, Майкл Бьен, Нэвин Эндрюс, Майкл Паркс, Электра Авеллан, Элиз Авеллан

Описание: Полиция крохотного городка вынуждена иметь дело с жертвами смертельного вируса, превращающего людей в зомби. Народное ополчение возглавляет Черри с автоматом вместо ножного протеза и владеющий боевыми искусствами Врэй.

[/field]

Видео: 720x400 (16:9), 23.976 fps, AVC, х264, High@L3.0, ~1 525 Kbps 0.221 bit/pixel
Аудио: 48 kHz, AC3 Dolby Digital, 3/2 (L,C,R,l,r) + LFE ch, ~448.00 kbps avg

Бюджет: 53 000 000$

Сборы в мире$10 607 018
Сборы в России $1 055 050

*Часть музыки для «Планеты страха» была позаимствована из фильмов «Побег из Нью-Йорка» (1981) и «Прокол» (1981).

*Майкл Паркс, сыгравший шерифа Эрла МакГроу, также появляется в той же самой роли в «Доказательстве смерти» (2007), «Убить Билла часть 1» (2003) и «От заката до рассвета» (1996).

*Роберт Родригез написал первые тридцать страниц сценария для «Планеты страха» в 1998 году.

*Имя персонажа Фредди Родригеза, Эль Рэй, - ссылка на город, куда направлялись главные герои фильма «От заката до рассвета» (1996).

*Солдаты смотрят трейлер фильма «Женщины в клетках» (1971) с Пэм Грайр в главной роли.

*В одной из сцен фильма на заднем плане можно заметить овсяные хлопья «Great White Bites». В каждом фильме Квентина Тарантино присутствует коробка с овсяными хлопьями.

*В больнице можно заметить плакат с надписью «Поддержите наши войска».

*Рэбел Родригез, сын Роберта Родригеза, сыграл Тони Блока.

*Сильно заметные царапины и пузыри появлялись в 1970-х гг. только при окончании катушки, но никак не по ходу действия всего фильма.

*Роуз МакГоун хотела, чтобы Рэй-Филлип Сантос сыграл Эль Рэя, однако роль досталась Фредди Родригезу.

*Рабочее название картины – «Project Terror».

*Изначально Джон Карпентер должен был написать музыку к фильму.

*Создатели специально «состарили» фильм, для того чтобы сымитировать картины, шедшие в грайнхаусах.

*Роль Дакоты была специально написана для Марли Шелтон.

*В сцене, где Эрл МакГроу (Майкл Паркс) кормит свою жену, можно заметить фотографию Паркса на мотоцикле из телесериала «А потом пришёл Бронсон» (1969).

*Перед тем, как героиня, сыгранная Ферги, выходит на пустынное шоссе, она выключает радио. А по радио звучали слова: 'Памяти Джулии Джангл...«- той самой негритянки Джулии, которая была в »Доказательстве смерти' (её отрезало ногу). Благодаря этому можно понять, что в хронологическом порядке сначала идёт фильм «Доказательство смерти», а затем «Планета страха».
General
Unique ID: 197351761703001660881964204882509231809 (0x9478911624D40FDEB0EDB92D654CF6C1)
Complete name: E:\Загрузки\planeta.straxa.BD.AVC.chopper887.mkv
Format: Matroska
File size: 1.46 GiB
Duration: 1h 45mn
Overall bit rate: 1 976 Kbps
Encoded date: UTC 2008-12-07 13:48:38
Writing application: mkvmerge v2.3.0 ('Freak U') built on Sep8 2008 18:32:16
Writing library: libebml v0.7.7 + libmatroska v0.8.1

Video
ID: 2
Format: AVC
Format/Info: Advanced Video Codec
Format profile: High@L3.0
Format settings, CABAC: Yes
Format settings, ReFrames: 2 frames
Codec ID: V_MPEG4/ISO/AVC
Duration: 1h 45mn
Bit rate: 1 525 Kbps
Width: 720 pixels
Height: 400 pixels
Display aspect ratio: 16:9
Frame rate: 23.976 fps
Color space: YUV
Chroma subsampling: 4:2:0
Bit depth: 8 bits
Scan type: Progressive
Bits/(Pixel*Frame): 0.221
Stream size: 1.10 GiB (75%)
Writing library: x264 core 65 r1040M 1591275
Encoding settings: cabac=1 / ref=2 / deblock=1:-5:-5 / analyse=0x3:0x113 / me=hex / subme=6 / psy_rd=1.0:0.0 / mixed_ref=0 / me_range=16 / chroma_me=1 / trellis=1 / 8x8dct=1 / cqm=0 / deadzone=21,11 / chroma_qp_offset=-2 / threads=3 / nr=0 / decimate=1 / mbaff=0 / bframes=7 / b_pyramid=0 / b_adapt=1 / b_bias=0 / direct=2 / wpredb=0 / keyint=250 / keyint_min=25 / scenecut=40(pre) / rc=2pass / bitrate=1525 / ratetol=1.0 / qcomp=0.60 / qpmin=10 / qpmax=51 / qpstep=4 / cplxblur=20.0 / qblur=0.5 / ip_ratio=1.40 / pb_ratio=1.30 / aq=0
Language: English

Audio
ID: 1
Format: AC-3
Format/Info: Audio Coding 3
Mode extension: CM (complete main)
Codec ID: A_AC3
Duration: 1h 45mn
Bit rate mode: Constant
Bit rate: 448 Kbps
Channel(s): 6 channels
Channel positions: Front: L C R, Side: L R, LFE
Sampling rate: 48.0 KHz
Bit depth: 16 bits
Compression mode: Lossy
Stream size: 338 MiB (23%)
















Поделиться:




реклама партнёра


Вернуться к началу
 Профиль Отправить личное сообщение  
 
   Похожие торренты   Автор   Торрент   Размер 
В этой теме нет новых непрочитанных сообщений. Планета обезьян: Революция / Dawn of the Planet of the Apes [Фантастика, Боевик, Драма, 2014] HDRip, Dub [лицензия]

Dracon

80 | 4

1.46 ГБ

В этой теме нет новых непрочитанных сообщений. Планета обезьян: Революция / Dawn of the Planet of the Apes [Фантастика, Боевик, Драма, 2014] HDRip, Dub [лицензия]

Dracon

2 | 2

2.05 ГБ

В этой теме нет новых непрочитанных сообщений. Дети кукурузы 5: Поля страха / Children of the Corn V: Fields of Terror [ужасы, триллер, 1998] BDRip 1080p, Mvo

salma3

10 | 7

8.19 ГБ

В этой теме нет новых непрочитанных сообщений. За гранью страха / Borderland [ужасы, триллер, криминал, 2007] HDRip-AVC, Mvo,Sub

salma3

83 | 20

1.45 ГБ

В этой теме нет новых непрочитанных сообщений. Город грехов 2: Женщина, ради которой стоит убивать / Sin City: A Dame to Kill For (Фрэнк Миллер, Роберт Родригес) [2014, боевик, триллер, криминал, HDRip | Лицезия] Dub

Dracon

3626 | 102

1.46 ГБ

В этой теме нет новых непрочитанных сообщений. Планета обезьян: Революция / Dawn of the Planet of the Apes [фантастика, боевик, драма, 2014] WEB-DL 720p, Dub+Sub [Blu-ray 3D EUR] 

Dracon

35 | 15

5.33 ГБ

В этой теме нет новых непрочитанных сообщений. Планета обезьян: Революция / Dawn of the Planet of the Apes [фантастика, боевик, драма, 2014] Blu-ray CEE 1080p, Dub+Sub [Лицензия]

Dracon

134 | 19

43.96 ГБ


Начать новую тему Ответить на тему  [ 1 сообщение ] 




Для Мосгорсуда, Роскомнадзора и рекламодателей:: mosgorsud-torrent[собачка]yandex.ru