Торрент файл
скачать торрент магнет ссылка Добавлен: 22 янв 2012, 14:51
Размер: 2.2 ГБ
Сидеров: 23
Личеров: 7
Автор

СообщениеДобавлено: 22 янв 2012, 14:51 

Не в сети
Супермодератор
Аватара пользователя
Дата регистрации:
11 апр 2010, 18:10
Спасибо: 5801 / 7
Сообщения: 56779
Космическая одиссея 2010 / 2010

Перевод: Профессиональный (многоголосый, закадровый), cубтитры: Русские, Английские (полные, отключаемые)
Формат: HDRip, MKV, H.264, AC3
Страна: США
Режиссер: Питер Хайамс
Жанр: фантастика, триллер, детектив, приключения
Продолжительность: 01:55:55
Год выпуска: 1984
В ролях: Рой Шайдер, Джон Литгоу, Хелен Миррен, Савелий Крамаров, Боб Бэлабан, Кир Дулли, Дуглас Рэйн, Мэдолин Смит-Осборн, Дэна Элкар, Толизин Джаффе, Джеймс МакИчин
Описание: Действие происходит спустя девять лет после событий предыдущей картины. Космический корабль «Алексей Леонов» с советско-американским экипажем на борту отправляется на Юпитер, чтобы разгадать тайну оставленного на орбите корабля-первопроходца «Дискавери».
Для этого командиру и членам звездного экипажа предстоит вновь активировать выведенный из строя компьютерный мозг HAL-9000, который явился одной из причин провала первой экспедиции.


Видео: 1280x536 (2,40:1), 23,976 fps, MPEG4 AVC (х264), High@L4.1 ~2224 kbps avg, 0.135 bit/pixel
Аудио#1:Русский: 48 kHz, AC-3, 2 ch, ~192.00 kbps avg [Профессиональный (многоголосый, закадровый)]
Аудио#2:Английский: 48 kHz, AC-3, 6 ch, ~ 320.00 kbps avg [Оригинал]


Автор РИПа:
Общее
Уникальный идентификатор : 211482260064968039613204648239632716491 (0x9F1A0071CEFEF71FBBE01A81E00B92CB)
Полное имя : f:\Downloads\2010_[tfile.ru].mkv
Формат : Matroska
Размер файла : 2,20 Гбайт
Продолжительность : 1 ч. 55 м.
Общий поток : 2712 Кбит/сек
Название фильма : 2010: The Year We Make Contact (1984)
Дата кодирования : UTC 2011-08-23 08:59:38
Программа кодирования : mkvmerge v4.6.0 ('Still Crazy After All These Years') сборка от Mar 10 2011 02:50:32
Библиотека кодирования : libebml v1.2.0 + libmatroska v1.1.0

Видео
Идентификатор : 1
Формат : AVC
Формат/Информация : Advanced Video Codec
Профиль формата : High@L4.1
Параметр CABAC формата : Да
Параметр ReFrames формата : 3 кадра
Режим смешивания : Header stripping
Идентификатор кодека : V_MPEG4/ISO/AVC
Продолжительность : 1 ч. 55 м.
Битрейт : 2224 Кбит/сек
Ширина : 1280 пикс.
Высота : 536 пикс.
Соотношение сторон : 2,40:1
Соотношение сторон в оригинале : 2,40:1
Режим частоты кадров : Переменный
Частота кадров : 23,976 кадр/сек
Цветовое пространство : YUV
Подвыборка цветности : 4:2:0
Битовая глубина : 8 бит
Тип развёртки : Прогрессивная
Бит/(Пиксели*Кадры) : 0.135
Размер потока : 1,74 Гбайт (79%)
Библиотека кодирования : x264 core 116 r2019M 9cc407d
Настройки программы : cabac=1 / ref=3 / deblock=1:0:0 / analyse=0x3:0x133 / me=hex / subme=7 / psy=1 / psy_rd=1.00:0.20 / mixed_ref=1 / me_range=16 / chroma_me=1 / trellis=1 / 8x8dct=1 / cqm=0 / deadzone=21,11 / fast_pskip=1 / chroma_qp_offset=-3 / threads=7 / sliced_threads=0 / nr=0 / decimate=1 / interlaced=0 / bluray_compat=0 / constrained_intra=0 / bframes=3 / b_pyramid=1 / b_adapt=2 / b_bias=0 / direct=3 / weightb=1 / open_gop=0 / weightp=2 / keyint=230 / keyint_min=23 / scenecut=40 / intra_refresh=0 / rc_lookahead=0 / rc=2pass / mbtree=0 / bitrate=2224 / ratetol=1.0 / qcomp=0.60 / qpmin=10 / qpmax=51 / qpstep=4 / cplxblur=20.0 / qblur=0.5 / vbv_maxrate=31250 / vbv_bufsize=31250 / nal_hrd=none / ip_ratio=1.40 / pb_ratio=1.30 / aq=1:1.00
Язык : English

Аудио #1
Идентификатор : 2
Формат : AC-3
Формат/Информация : Audio Coding 3
Расширение режима : CM (complete main)
Режим смешивания : Header stripping
Идентификатор кодека : A_AC3
Продолжительность : 1 ч. 55 м.
Вид битрейта : Постоянный
Битрейт : 192 Кбит/сек
Каналы : 2 канала
Расположение каналов : Front: L R
Частота : 48,0 КГц
Битовая глубина : 16 бит
Метод сжатия : С потерями
Размер потока : 159 Мбайт (7%)
Заголовок : DVO
Язык : Russian

Аудио #2
Идентификатор : 3
Формат : AC-3
Формат/Информация : Audio Coding 3
Расширение режима : CM (complete main)
Режим смешивания : Header stripping
Идентификатор кодека : A_AC3
Продолжительность : 1 ч. 55 м.
Вид битрейта : Постоянный
Битрейт : 320 Кбит/сек
Каналы : 6 каналов
Расположение каналов : Front: L C R, Side: L R, LFE
Частота : 48,0 КГц
Битовая глубина : 16 бит
Метод сжатия : С потерями
Размер потока : 265 Мбайт (12%)
Заголовок : ENG
Язык : English

Текст #1
Идентификатор : 4
Формат : UTF-8
Идентификатор кодека : S_TEXT/UTF8
Идентификатор кодека/Информация : UTF-8 Plain Text
Язык : Russian

Текст #2
Идентификатор : 5
Формат : UTF-8
Идентификатор кодека : S_TEXT/UTF8
Идентификатор кодека/Информация : UTF-8 Plain Text
Язык : English














Поделиться:




реклама партнёра


Вернуться к началу
 Профиль Отправить личное сообщение  
 
   Похожие торренты   Автор   Торрент   Размер 
В этой теме нет новых непрочитанных сообщений. Американская одиссея / American Odyssey [01x01-13 из 13] (Джэми Пэйн, Питер Хортон) [2015, Триллер, драма, WEB-DL 720p | LostFilm]

Dracon

39 | 78

16.82 ГБ

В этой теме нет новых непрочитанных сообщений. Американская одиссея / American Odyssey [01x01-13 из 13] (Джэми Пэйн, Питер Хортон) [2015, триллер, драма, WEB-DLRip | NewStudio]

Dracon

69 | 38

7.17 ГБ

В этой теме нет новых непрочитанных сообщений. Американская одиссея / American Odyssey [01х01-13 из 13] (Джэми Пэйн, Питер Хортон) [2015, триллер, драма, WEB-DL 1080p | LostFilm, NewStudio]

Dracon

25 | 21

24.62 ГБ

В этой теме нет новых непрочитанных сообщений. Лапландская одиссея / Napapiirin sankarit [комедия, драма, мелодрама, 2010] HDRip, Mvo

salma3

59 | 2

1.36 ГБ

В этой теме нет новых непрочитанных сообщений. Видение / Dreamscape [ужасы, фантастика, триллер, приключения, 1984] BDRip 720p, Avo

salma3

12 | 4

5.46 ГБ

В этой теме нет новых непрочитанных сообщений. Патруль времени / Predestination (Майкл Спириг, Питер Спириг) [фантастика, боевик, триллер, драма, детектив, 2014] Blu-Ray, Dub

Dracon

9 | 5

18.22 ГБ

В этой теме нет новых непрочитанных сообщений. Разрушение Трои и приключения Одиссея / Destruction of Troy and Adventures of Odysseus [мультфильм, приключения, исторический, 1998] DVDRip, Dub

salma3

13 | 3

1.46 ГБ


Начать новую тему Ответить на тему  [ 1 сообщение ] 




Для Мосгорсуда, Роскомнадзора и рекламодателей:: mosgorsud-torrent[собачка]yandex.ru