Торрент файл
скачать торрент магнет ссылка Добавлен: 22 янв 2012, 14:51
Размер: 2.22 ГБ
Сидеров: 24
Личеров: 5
Автор

СообщениеДобавлено: 22 янв 2012, 14:51 

Не в сети
Супермодератор
Аватара пользователя
Дата регистрации:
11 апр 2010, 18:10
Спасибо: 5802 / 7
Сообщения: 56779
Моя мачеха - инопланетянка / My Stepmother Is an Alien

Перевод: Профессиональный (многоголосый, закадровый), cубтитры: отсутствуют
Формат: HDTVRip, MKV, H.264, AC3
Страна: США
Режиссер: Ричард Бенджамин
Жанр: фантастика, комедия
Продолжительность: 01:43:31
Год выпуска: 1988
В ролях: Дэн Эйкройд, Ким Бейсингер, Джон Ловиц, Элисон Хэннигэн, Джозеф Maэp, Сет Грин, Энн Прентисс, Уэсли Манн, Тони Джей, Питер Бромилов
Описание: Селеста-сексуальная инопланетянка с секретным заданием-совратить ничего не подозревающего физика Стива Миллса и добраться до его исследований, в которых содержится ключ к спасению ее планеты.
Разодетая по последней моде и закусывающая на завтрак батарейками, Селеста производит неизгладимое впечатление на земных мужчин. Счастливый муж вот-вот испытает близкие контакты космически невообразимой степени!


Видео: 1280x720 (16:9), 25 fps, MPEG4 AVC (х264), High@L4.1 ~2504 kbps avg, 0.109 bit/pixe
Аудио#1:Русский: 48 kHz,AC-3, 2 ch, ~192.00 kbps avg [Профессиональный (многоголосый, закадровый) (Видеосервис)]
Аудио#2:Английский: 48 kHz, AC-3, 2 ch, ~192.00 kbps avg [Оригинал]
Аудио#3:Русский: 48 kHz,AC-3, 2 ch, ~192.00 kbps avg [Внешним файлом: Профессиональный (многоголосый, закадровый) (ОРТ-ТВ3)]


Автор РИПа:
Общее
Уникальный идентификатор : 177682692507856393349584746566076138287 (0x85AC711A762FE99DA1F61AB0218D032F)
Полное имя : f:\Downloads\my_stepmother_is_an_alien_[tfile.ru]\my_stepmother_is_an_alien_[tfile.ru].mkv
Формат : Matroska
Размер файла : 2,08 Гбайт
Продолжительность : 1 ч. 43 м.
Общий поток : 2875 Кбит/сек
Название фильма : (1988) Моя мачеха - инопланетянка
Дата кодирования : UTC 2011-08-18 19:55:13
Программа кодирования : mkvmerge v4.6.0 ('Still Crazy After All These Years') сборка от Mar 10 2011 02:50:32
Библиотека кодирования : libebml v1.2.0 + libmatroska v1.1.0

Видео
Идентификатор : 1
Формат : AVC
Формат/Информация : Advanced Video Codec
Профиль формата : High@L4.1
Параметр CABAC формата : Да
Параметр ReFrames формата : 3 кадра
Режим смешивания : Header stripping
Идентификатор кодека : V_MPEG4/ISO/AVC
Продолжительность : 1 ч. 43 м.
Битрейт : 2504 Кбит/сек
Ширина : 1280 пикс.
Высота : 720 пикс.
Соотношение сторон : 16:9
Режим частоты кадров : Переменный
Частота кадров : 25,000 кадр/сек
Цветовое пространство : YUV
Подвыборка цветности : 4:2:0
Битовая глубина : 8 бит
Тип развёртки : Прогрессивная
Бит/(Пиксели*Кадры) : 0.109
Размер потока : 1,76 Гбайт (85%)
Библиотека кодирования : x264 core 116 r2019M 9cc407d
Настройки программы : cabac=1 / ref=3 / deblock=1:0:0 / analyse=0x3:0x133 / me=hex / subme=7 / psy=1 / psy_rd=1.00:0.20 / mixed_ref=1 / me_range=16 / chroma_me=1 / trellis=1 / 8x8dct=1 / cqm=0 / deadzone=21,11 / fast_pskip=1 / chroma_qp_offset=-3 / threads=7 / sliced_threads=0 / nr=0 / decimate=1 / interlaced=0 / bluray_compat=0 / constrained_intra=0 / bframes=3 / b_pyramid=1 / b_adapt=2 / b_bias=0 / direct=3 / weightb=1 / open_gop=0 / weightp=2 / keyint=250 / keyint_min=25 / scenecut=40 / intra_refresh=0 / rc=2pass / mbtree=0 / bitrate=2504 / ratetol=1.0 / qcomp=0.60 / qpmin=10 / qpmax=51 / qpstep=4 / cplxblur=20.0 / qblur=0.5 / ip_ratio=1.40 / pb_ratio=1.30 / aq=1:1.00
Язык : English

Аудио #1
Идентификатор : 2
Формат : AC-3
Формат/Информация : Audio Coding 3
Профиль формата : Dolby Digital
Расширение режима : CM (complete main)
Режим смешивания : Header stripping
Идентификатор кодека : A_AC3
Продолжительность : 1 ч. 43 м.
Вид битрейта : Постоянный
Битрейт : 192 Кбит/сек
Каналы : 2 канала
Расположение каналов : Front: L R
Частота : 48,0 КГц
Битовая глубина : 16 бит
Метод сжатия : С потерями
Задержка видео : 20 мс.
Размер потока : 142 Мбайт (7%)
Заголовок : MVO (Видеосервис)
Язык : Russian

Аудио #2
Идентификатор : 3
Формат : AC-3
Формат/Информация : Audio Coding 3
Расширение режима : CM (complete main)
Режим смешивания : Header stripping
Идентификатор кодека : A_AC3
Продолжительность : 1 ч. 43 м.
Вид битрейта : Постоянный
Битрейт : 192 Кбит/сек
Каналы : 2 канала
Расположение каналов : Front: L R
Частота : 48,0 КГц
Битовая глубина : 16 бит
Метод сжатия : С потерями
Размер потока : 142 Мбайт (7%)
Язык : English












Поделиться:




реклама партнёра


Вернуться к началу
 Профиль Отправить личное сообщение  
 
   Похожие торренты   Автор   Торрент   Размер 
В этой теме нет новых непрочитанных сообщений. Моя мачеха - инопланетянка / My Stepmother Is an Alien [фантастика, комедия, 1988] HDTVRip, Mvo+Avo

salma3

16 | 2

1.46 ГБ

В этой теме нет новых непрочитанных сообщений. Злая мачеха / Wicked Stepmother [фэнтези, комедия, 1989] DVDRip, Avo

salma3

36 | 4

1.46 ГБ

В этой теме нет новых непрочитанных сообщений. The Stepmother #14 / Мачеха #14 (2016) WEB-DL

amadei

2 | 4

1.77 ГБ

В этой теме нет новых непрочитанных сообщений. It's Okay She's My Stepmother 5 / Все В Порядке, Это Моя Мачеха 5 (Devil's Films) (Nikki Daniels, Savannah Jane, Allison Moore, Valerie Voxx) [2015 г., All Sex, MILF / Cougar, DVDRip 404p](Split Scenes)

friizze

9 | 6

1.27 ГБ

В этой теме нет новых непрочитанных сообщений. The Stepmother 11: Don't Tell Your Dad / Мачеха 11: Не Говорите Вашему Папе (James Avalon / Sweet Sinner) (India Summer, Penny Pax, Logan Pierce, James Deen) [2014 г., Feature, Incest, MILFs, WEB-DL 404p][Split Scenes]

friizze

19 | 5

1.57 ГБ

В этой теме нет новых непрочитанных сообщений. Private Blockbusters 12: My Stepmother Is A Vampire / Моя Мачеха - Вампир (Alex Conte / Private) (Vicktoria Redd, Gabrielle Gucci, Chantelle White, Alexis Crystal, Ferrera Gomez) [2014 г., Group Sex, Anal Sex, Hardcore, DP, Feature, WEB-DL

kite

3 | 5

3 ГБ

В этой теме нет новых непрочитанных сообщений. Чужая нация / Alien Nation [Фантастика, боевик, криминал, 1988] BDRip, Mvo+Avo

salma3

92 | 4

1.45 ГБ


Начать новую тему Ответить на тему  [ 1 сообщение ] 




Для Мосгорсуда, Роскомнадзора и рекламодателей:: mosgorsud-torrent[собачка]yandex.ru