Торрент файл
скачать торрент магнет ссылка Добавлен: 22 янв 2012, 14:50
Размер: 2.1 ГБ
Сидеров: 31
Личеров: 6
Автор

СообщениеДобавлено: 22 янв 2012, 14:50 

Не в сети
Супермодератор
Аватара пользователя
Дата регистрации:
11 апр 2010, 18:10
Спасибо: 5801 / 7
Сообщения: 56779
Люди Икс: Первый класс / X-Men: First Class


Перевод: Профессиональный (полное дублирование), cубтитры: русские (на немецкую речь)
Формат: HDRip-AVC, MKV, H.264, AC3
Страна: США
Режиссер: Мэттью Вон
Жанр: фантастика, боевик, драма, приключения
Продолжительность: 02:11:42
Год выпуска: 2011

В ролях: Джеймс МакЭвой, Майкл Фассбендер, Кевин Бейкон, Роуз Бирн, Николас Холт, Лукас Тилл, Дженнифер Лоуренс, Калеб Лэндри Джонс, Зои Кравиц, Дженьюэри Джонс

Описание: Фильм нам расскажет о том, как сформировались профессор Ксавье и Магнито, о процессе основания школы Ксавье для детей-мутантов и, наконец, о том, что же произошло между двумя закадычными друзьями и почему они расстались.



Видео: 928 x 392 (2:35:1), 23.976 fps, AVC, х264, High@L4.1, ~ 1900 Kbps, 0.218 bit/pixel
Аудио: 48 kHz, AC3 Dolby Digital, 3/2 (L,C,R,l,r) + LFE ch, ~384 kbps


Рип: jeenart

General
Unique ID: 221431404969850696989586645516302583484 (0xA69623291A1EA2D8A8C854DDD29E86BC)
Complete name: F:\Мои релизы\Все релизы 10\ludi_iks_pervii_klass_[tfile.ru].mkv
Format: Matroska
File size: 2.10 GiB
Duration: 2h 11mn
Overall bit rate: 2 286 Kbps
Encoded date: UTC 2011-08-26 06:59:56
Writing application: mkvmerge v4.6.0 ('Still Crazy After All These Years') сборка от Apr1 2011 21:01:49
Writing library: libebml v1.2.0 + libmatroska v1.1.0

Video
ID: 1
Format: AVC
Format/Info: Advanced Video Codec
Format profile: High@L4.1
Format settings, CABAC: Yes
Format settings, ReFrames: 4 frames
Format settings, GOP: M=4, N=32
Codec ID: V_MPEG4/ISO/AVC
Duration: 2h 11mn
Bit rate: 1 900 Kbps
Width: 928 pixels
Height: 392 pixels
Display aspect ratio: 2.35:1
Frame rate: 23.976 fps
Color space: YUV
Chroma subsampling: 4:2:0
Bit depth: 8 bits
Scan type: Progressive
Bits/(Pixel*Frame): 0.218
Stream size: 1.71 GiB (81%)
Writing library: x264 core 115 r1937 aa21558
Encoding settings: cabac=1 / ref=3 / deblock=1:-1:-1 / analyse=0x3:0x113 / me=hex / subme=7 / psy=1 / psy_rd=1.00:0.10 / mixed_ref=1 / me_range=16 / chroma_me=1 / trellis=1 / 8x8dct=1 / cqm=0 / deadzone=21,11 / fast_pskip=1 / chroma_qp_offset=-3 / threads=6 / sliced_threads=0 / nr=0 / decimate=1 / interlaced=0 / bluray_compat=0 / constrained_intra=0 / bframes=3 / b_pyramid=2 / b_adapt=1 / b_bias=0 / direct=1 / weightb=1 / open_gop=0 / weightp=2 / keyint=250 / keyint_min=23 / scenecut=40 / intra_refresh=0 / rc_lookahead=40 / rc=2pass / mbtree=1 / bitrate=1900 / ratetol=1.0 / qcomp=0.60 / qpmin=0 / qpmax=69 / qpstep=4 / cplxblur=20.0 / qblur=0.5 / ip_ratio=1.40 / aq=1:1.00

Audio
ID: 2
Format: AC-3
Format/Info: Audio Coding 3
Mode extension: CM (complete main)
Codec ID: A_AC3
Duration: 2h 11mn
Bit rate mode: Constant
Bit rate: 384 Kbps
Channel(s): 6 channels
Channel positions: Front: L C R, Side: L R, LFE
Sampling rate: 48.0 KHz
Bit depth: 16 bits
Compression mode: Lossy
Stream size: 362 MiB (17%)
























Поделиться:




реклама партнёра


Вернуться к началу
 Профиль Отправить личное сообщение  
 
   Похожие торренты   Автор   Торрент   Размер 
В этой теме нет новых непрочитанных сообщений. Класс / Class [01x01-03 из 08] (фантастика, приключения, 2016) WEB-DLRip | Jaskier

marya111

0 | 0

1.72 ГБ

В этой теме нет новых непрочитанных сообщений. Класс / Class [драма, мелодрама, комедия, 1983] HDRip, Dvo

salma3

32 | 3

1.46 ГБ

В этой теме нет новых непрочитанных сообщений. Класс 1984 / Class of 1984 [боевик, триллер, драма, криминал, 1982] BDRemux 1080p, Avo+Sub

salma3

10 | 2

28.28 ГБ

В этой теме нет новых непрочитанных сообщений. Класс 1984 / Class of 1984 [боевик, триллер, драма, криминал, 1982] BDRip 1080p, Avo

salma3

101 | 32

7.76 ГБ

В этой теме нет новых непрочитанных сообщений. Класс 1984 / Class of 1984 [боевик, триллер, драма, криминал, 1982] BDRip 720p, Avo

salma3

13 | 16

4.67 ГБ

В этой теме нет новых непрочитанных сообщений. Люди Икс: Дни минувшего будущего / X-Men: Days of Future Past [фантастика, фэнтези, боевик, приключения, 2014] HDRip-AVC, Dub+Sub [Лицензия]

Dracon

181 | 4

2.04 ГБ

В этой теме нет новых непрочитанных сообщений. Первый мститель: Противостояние / Captain America: Civil War [фантастика, боевик, приключения, 2016] HDRip, Dub [чистый звук]

salma3

2293 | 41

1.37 ГБ


Начать новую тему Ответить на тему  [ 1 сообщение ] 




Для Мосгорсуда, Роскомнадзора и рекламодателей:: mosgorsud-torrent[собачка]yandex.ru