Торрент файл
скачать торрент магнет ссылка Добавлен: 22 янв 2012, 14:50
Размер: 2.29 ГБ
Сидеров: 71
Личеров: 10
Автор

СообщениеДобавлено: 22 янв 2012, 14:50 

Не в сети
Супермодератор
Аватара пользователя
Дата регистрации:
11 апр 2010, 18:10
Спасибо: 5802 / 7
Сообщения: 56779
Часто задаваемые вопросы о путешествиях во времени / Frequently Asked Questions About Time Travel

Перевод: Профессиональный (двухголосый), cубтитры: Английские (полные, отключаемые)
Формат: HDTVRip, MKV, H.264, AC3
Страна: Великобритания
Режиссер: Гарет Карривик
Жанр: фантастика, комедия
Продолжительность: 01:22:41
Год выпуска: 2009
В ролях: Криc О’Дауд, Марк Вуттон, Дин Леннокс Келли, Анна Фэрис, Мередит МакНейл, Рэй Гарднер, Ник Ивэнс, Артур Найтингейл, Пол Адамс, Дарио Аттанасио
Описание: Трое друзей выпивают пиво в пабе. Рэй, один из них, знакомится с девушкой, которая утверждает, что является путешественницей во времени, и восторгается свершениями Рэя, которые он должен сотворить в будущем. Рэй считает это хитрым розыгрышем и рассказывает о встрече своим друзьям.
В реальность истории им приходится поверить только после того, как, посетив мужской туалет, они выходят в ином времени. Они перемещаются во время недалекого прошлого, в момент, когда они только пришли в паб, затем посещают далёкое постапокалиптическое будущее, когда весь мир оказывается разрушен и испепелён, а по улицам ходят огромные насекомые. В будущем видят рисунки самих себя, сидящих за столом паба, попадают на вечеринку в свою честь и оказываются лицом к лицу с убийцей из будущего.


Видео: 1280x720 (16:9), 23,976 fps, MPEG4 AVC (х264), High@L4.1 ~2968 kbps avg, 0.134 bit/pixe
Аудио#1:Русский: 48 kHz,AC-3, 2 ch, ~192.00 kbps avg [Профессиональный (двухголосый) (Студия NLS)]
Аудио#2:Русский: 48 kHz,AC-3, 6 ch, ~448.00 kbps avg [ Профессиональный (одноголосый) (ru.slame)]
Аудио#3:Английский: 48 kHz, AC-3, 6 ch, ~384.00 kbps avg [Внешним файлом: Оригинал]



Автор РИПа:
Общее
Уникальный идентификатор : 244928098272782423082079753557740825472 (0xB8436F9514985309AC52F0B3751F2B80)
Полное имя : f:\Downloads\frequently_asked_questions_about_time_travel_[tfile.ru]\frequently_asked_questions_about_time_travel_[tfile.ru].mkv
Формат : Matroska
Размер файла : 2,07 Гбайт
Продолжительность : 1 ч. 22 м.
Общий поток : 3576 Кбит/сек
Дата кодирования : UTC 2011-08-26 02:12:35
Программа кодирования : mkvmerge v4.6.0 ('Still Crazy After All These Years') сборка от Mar 10 2011 02:50:32
Библиотека кодирования : libebml v1.2.0 + libmatroska v1.1.0

Видео
Идентификатор : 1
Формат : AVC
Формат/Информация : Advanced Video Codec
Профиль формата : High@L4.1
Параметр CABAC формата : Да
Параметр ReFrames формата : 3 кадра
Режим смешивания : Header stripping
Идентификатор кодека : V_MPEG4/ISO/AVC
Продолжительность : 1 ч. 22 м.
Битрейт : 2968 Кбит/сек
Ширина : 1280 пикс.
Высота : 720 пикс.
Соотношение сторон : 16:9
Режим частоты кадров : Переменный
Частота кадров : 23,976 кадр/сек
Цветовое пространство : YUV
Подвыборка цветности : 4:2:0
Битовая глубина : 8 бит
Тип развёртки : Прогрессивная
Бит/(Пиксели*Кадры) : 0.134
Размер потока : 1,65 Гбайт (80%)
Библиотека кодирования : x264 core 116 r2019M 9cc407d
Настройки программы : cabac=1 / ref=3 / deblock=1:0:0 / analyse=0x3:0x133 / me=hex / subme=7 / psy=1 / psy_rd=1.00:0.20 / mixed_ref=1 / me_range=16 / chroma_me=1 / trellis=1 / 8x8dct=1 / cqm=0 / deadzone=21,11 / fast_pskip=1 / chroma_qp_offset=-3 / threads=7 / sliced_threads=0 / nr=0 / decimate=1 / interlaced=0 / bluray_compat=0 / constrained_intra=0 / bframes=3 / b_pyramid=1 / b_adapt=2 / b_bias=0 / direct=3 / weightb=1 / open_gop=0 / weightp=2 / keyint=230 / keyint_min=23 / scenecut=40 / intra_refresh=0 / rc=2pass / mbtree=0 / bitrate=2968 / ratetol=1.0 / qcomp=0.60 / qpmin=10 / qpmax=51 / qpstep=4 / cplxblur=20.0 / qblur=0.5 / ip_ratio=1.40 / pb_ratio=1.30 / aq=1:1.00
Язык : English

Аудио #1
Идентификатор : 2
Формат : AC-3
Формат/Информация : Audio Coding 3
Расширение режима : CM (complete main)
Режим смешивания : Header stripping
Идентификатор кодека : A_AC3
Продолжительность : 1 ч. 22 м.
Вид битрейта : Постоянный
Битрейт : 192 Кбит/сек
Каналы : 2 канала
Расположение каналов : Front: L R
Частота : 48,0 КГц
Битовая глубина : 16 бит
Метод сжатия : С потерями
Размер потока : 114 Мбайт (5%)
Заголовок : DVO
Язык : Russian

Аудио #2
Идентификатор : 3
Формат : AC-3
Формат/Информация : Audio Coding 3
Расширение режима : CM (complete main)
Режим смешивания : Header stripping
Идентификатор кодека : A_AC3
Продолжительность : 1 ч. 22 м.
Вид битрейта : Постоянный
Битрейт : 448 Кбит/сек
Каналы : 6 каналов
Расположение каналов : Front: L C R, Side: L R, LFE
Частота : 48,0 КГц
Битовая глубина : 16 бит
Метод сжатия : С потерями
Размер потока : 265 Мбайт (13%)
Заголовок : VO
Язык : Russian

Текст
Идентификатор : 4
Формат : UTF-8
Идентификатор кодека : S_TEXT/UTF8
Идентификатор кодека/Информация : UTF-8 Plain Text
Язык : English













Поделиться:




реклама партнёра


Вернуться к началу
 Профиль Отправить личное сообщение  
 
   Похожие торренты   Автор   Торрент   Размер 
В этой теме нет новых непрочитанных сообщений. Путешествие в машине времени / Time After Time [фантастика, триллер, драма, мелодрама, комедия, приключения, 1979] DVDRip, Mvo+Dvo

salma3

23 | 5

1.46 ГБ

В этой теме нет новых непрочитанных сообщений. Alloy - The Path So Frequently Trodden [2012, Heavy Metal, MP3]

PriZraK

0 | 1

77.19 МБ

В этой теме нет новых непрочитанных сообщений. Земля, забытая временем / The Land That Time Forgot [Приключения, фантастика, драма, 1975] HDTVRip, Avo

salma3

102 | 10

742.81 МБ

В этой теме нет новых непрочитанных сообщений. Люди, забытые временем / The People That Time Forgot [Фантастика, приключения, драма, 1977] HDTVRip, Dvo

salma3

101 | 14

742.91 МБ

В этой теме нет новых непрочитанных сообщений. Путешествие в машине времени / Time After Time [фантастика, триллер, мелодрама, 1979] BDRemux 1080p, Mvo

salma3

9 | 7

31.64 ГБ

В этой теме нет новых непрочитанных сообщений. Путешествие в машине времени / Time After Time [фантастика, триллер, мелодрама, 1979] BDRip 720p, Mvo

salma3

74 | 4

4.29 ГБ

В этой теме нет новых непрочитанных сообщений. Еще есть время для любви / Love in Time [01-06 из 09] (Бен Фонг) [2015, романтика, вампиры, драма, фантастика, HDTVRip 720p | BTT-TEAM]

Dracon

10 | 4

9.05 ГБ


Начать новую тему Ответить на тему  [ 1 сообщение ] 




Для Мосгорсуда, Роскомнадзора и рекламодателей:: mosgorsud-torrent[собачка]yandex.ru