Торрент файл
скачать торрент магнет ссылка Добавлен: 22 янв 2012, 14:50
Размер: 2.19 ГБ
Сидеров: 59
Личеров: 6
Автор

СообщениеДобавлено: 22 янв 2012, 14:50 

Не в сети
Супермодератор
Аватара пользователя
Дата регистрации:
11 апр 2010, 18:10
Спасибо: 5802 / 7
Сообщения: 56779
[b]2199: Космическая одиссея / Space Battleship Yamato[/b]

Перевод: Профессиональный (полное дублирование)[лицензия], cубтитры: отсутствуют

Формат: HDRip-AVC, MKV, H.264, AC3

Страна: Япония

Режиссер: Такаши Ямазаки

Жанр: фантастика, боевик, драма, приключения

Продолжительность: 02:12:55

Год выпуска: 2010

В ролях: Такуя Кимура, Меиса Куроки, Такуми Саито, Хироюки Икеучи, Наото Такэнака, Теруюки Кагава, Цутому Ямазаки, Масато Ибу, Шиносуке Ичикава, Тошиюки Нишида.

Описание: Космический линкор «Ямато» отправляется в опасную космическую экспедицию. Его цель — планета Искандер, которая является последней надеждой разоренной и отравленной радиацией, планеты Земля. Война с далекими пришельцами не прошла бесследно: бескрайние пустыни и разрушенные города, повсеместные мутации, высокий радиационный уровень атмосферы. Планета Искандер хранит нейтрализатор и только он может помочь нашей Родине…

[/field]

Видео: 1280x536 (2.35:1), 23,976 fps,AVC, х264, High@L3.1,~1809 kbps avg, 0.110 bit/pixel
Аудио: 48 kHz, AC3 Dolby Digital, 3/2 (L,C,R,l,r) + LFE ch, ~448.00 kbps avg

Релиз группа:

Доп. информация: Премьера (РФ) 21 июля 2011, «Кинопром»

Бюджет$25 000 000

Сборы в мире$49 710 000
Производство

Первоначально, идея снять фильм появилась в 2005 году у студий TBS Films и компании Tokyo Broadcasting System. Нобору Исигуро, который был режиссёром оригинального сериала, подтвердил 17 июля 2009 года, что лайв-экшен Космического Крейсера Ямато находится в разработке. Режиссёр фильма Такаси Ямадзаки объявил, что фильм выйдет в декабре 2010 года с ожидаемым бюджетом в 2,2 миллиарда иен (22 миллиона долларов). В фильме использовалось много визуальных эффектов, созданных студией Ямадзаки «Сирогуми», всё это будет задействовано на протяжении как минимум 65 минут экранного времени. По сообщению издания Daily Sports, все космические сражения из сериала были переданы в фильме, по новейшим технологиям компьютерной графики. Осенью 2009 года было объявлено, что главную роль Сусуму Кодая исполнит популярный японский актёр Такуя Кимура. Первоначально планировалось что роль Юки исполнит Эрика Савадзири, но её место заняла Мэйса Куроки.

Основные съёмки начались 12 октября 2009 года и закончились к концу того же года. Компьютерная графика и другой пост-продакшен заняли ещё 9 месяцев и наконец фильм был показан первого декабря 2010 года в 440 японских кинотеатрах.

Кассовые сборы и рецензии

Фильм стал абсолютным кассовым лидером сезона в Японии и обошёл даже последнюю на то время часть киноэпопеи про Гарри Поттера — «Гарри Поттер и Дары Смерти: часть 1». Zac Bertschy с сайта Anime News Network дал фильму ранг «B», отметив что фильм «нажимает на педаль газа сразу у ворот и не отпускает вас до самого конца, иногда не стесняясь просто развлечь». The Japan Times также положительно оценили фильм. По мнению издания фильм такого масштаба и затрат опускается огромной ношей и ответственностью на плечи съёмочной группы, но создатели фильма отлично справились с этой задачей. В тоже время, были и более критические отзывы, например Кристоф Марк из «Ёмиури симбун» высказал мнение, что фильму не хватает тяжести и сравнил фильм с ремейком Battlestar Galactica, имея в виду потерю духа оригинального сериала.
General
Unique ID: 219257102327049549783475409644081830053 (0xA4F361C37C52B75BB6B6C1B87F46D8A5)
Complete name: F:\Space Battleship Yamato.[Element-Team].mkv
Format: Matroska
File size: 2.19 GiB
Duration: 2h 18mn
Overall bit rate: 2 258 Kbps
Movie name: Rip by Aspro
Encoded date: UTC 2011-08-24 06:46:41
Writing application: mkvmerge v3.2.0 ('Beginnings') built on Feb 12 2010 16:46:17
Writing library: libebml v0.7.9 + libmatroska v0.8.1

Video
ID: 1
Format: AVC
Format/Info: Advanced Video Codec
Format profile: High@L3.1
Format settings, CABAC: Yes
Format settings, ReFrames: 2 frames
Format settings, GOP: M=4, N=48
Codec ID: V_MPEG4/ISO/AVC
Duration: 2h 18mn
Bit rate: 1 809 Kbps
Width: 1 280 pixels
Height: 536 pixels
Display aspect ratio: 2.35:1
Original display aspect ratio: 2.35:1
Frame rate mode: Variable
Frame rate: 23.976 fps
Color space: YUV
Chroma subsampling: 4:2:0
Bit depth: 8 bits
Scan type: Progressive
Bits/(Pixel*Frame): 0.110
Stream size: 1.71 GiB (78%)
Title: 2199: Космическая одиссея.[element-team.org]
Writing library: x264 core 112 r1834 a51816a
Encoding settings: cabac=1 / ref=2 / deblock=1:0:0 / analyse=0x3:0x113 / me=hex / subme=6 / psy=1 / psy_rd=1.00:0.00 / mixed_ref=0 / me_range=16 / chroma_me=1 / trellis=0 / 8x8dct=1 / cqm=0 / deadzone=21,11 / fast_pskip=1 / chroma_qp_offset=-2 / threads=2 / sliced_threads=0 / nr=0 / decimate=1 / interlaced=0 / constrained_intra=0 / bframes=3 / b_pyramid=0 / b_adapt=1 / b_bias=0 / direct=3 / weightb=1 / open_gop=0 / weightp=2 / keyint=250 / keyint_min=25 / scenecut=40 / intra_refresh=0 / rc_lookahead=40 / rc=2pass / mbtree=1 / bitrate=1809 / ratetol=1.0 / qcomp=0.60 / qpmin=10 / qpmax=51 / qpstep=4 / cplxblur=20.0 / qblur=0.5 / ip_ratio=1.41 / aq=1:1.00
Language: English

Audio
ID: 2
Format: AC-3
Format/Info: Audio Coding 3
Mode extension: CM (complete main)
Codec ID: A_AC3
Duration: 2h 18mn
Bit rate mode: Constant
Bit rate: 448 Kbps
Channel(s): 6 channels
Channel positions: Front: L C R, Side: L R, LFE
Sampling rate: 48.0 KHz
Bit depth: 16 bits
Compression mode: Lossy
Stream size: 444 MiB (20%)
Title: AC3 5.1 @ 448 kbps - Dub, R5
Language: Russian









Поделиться:




реклама партнёра


Вернуться к началу
 Профиль Отправить личное сообщение  
 
   Похожие торренты   Автор   Торрент   Размер 
В этой теме нет новых непрочитанных сообщений. Космическая станция 76 / Space Station 76 [фантастика, драма, комедия, 2014] WEB-DLRip, Mvo [iTunes]

Dracon

457 | 12

1.37 ГБ

В этой теме нет новых непрочитанных сообщений. Космическая станция 76 / Space Station 76 [фантастика, драма, комедия, 2014] WEB-DL 720p, Mvo [iTunes]

Dracon

394 | 12

2.89 ГБ

В этой теме нет новых непрочитанных сообщений. Космический пират Харлок / Space Pirate Captain Harlock [мультфильм, фантастика, боевик, приключения, 2013] HDRip, Mvo

salma3

1602 | 72

2.05 ГБ

В этой теме нет новых непрочитанных сообщений. Космический пират Харлок / Space Pirate Captain Harlock [мультфильм, фантастика, боевик, приключения, 2013] HDRip, dub [UNRATED | Чистый звук]

Dracon

250 | 6

2.05 ГБ

В этой теме нет новых непрочитанных сообщений. Лапландская одиссея / Napapiirin sankarit [комедия, драма, мелодрама, 2010] HDRip, Mvo

salma3

59 | 2

1.36 ГБ

В этой теме нет новых непрочитанных сообщений. Затерянные в космосе / Lost in Space [фантастика, боевик, триллер, приключения, 1998] BDRip, Dub+Sub

salma3

193 | 14

1.46 ГБ

В этой теме нет новых непрочитанных сообщений. Затерянные в космосе / Lost in Space [фантастика, боевик, триллер, приключения, 1998] BDRip 1080p, Dub+Sub

salma3

89 | 8

4.37 ГБ


Начать новую тему Ответить на тему  [ 1 сообщение ] 




Для Мосгорсуда, Роскомнадзора и рекламодателей:: mosgorsud-torrent[собачка]yandex.ru