Торрент файл
скачать торрент магнет ссылка Добавлен: 22 янв 2012, 14:49
Размер: 1.46 ГБ
Сидеров: 206
Личеров: 13
Автор

СообщениеДобавлено: 22 янв 2012, 14:49 

Не в сети
Супермодератор
Аватара пользователя
Дата регистрации:
11 апр 2010, 18:10
Спасибо: 5802 / 7
Сообщения: 56779
Пираты Карибского моря: На странных берегах / Pirates of the Caribbean: On Stranger Tides


Перевод: Профессиональный (полное дублирование), cубтитры: отсутствуют
Формат: HDRip-AVC, MKV, H.264, AC3
Страна: США, Канада
Режиссер: Poб Mapшалл
Жанр: фэнтези, боевик, комедия, приключения
Продолжительность: 02:16:23
Год выпуска: 2011

В ролях: Джонни Депп, Пенелопа Крус, Джеффри Раш, Иэн МакШейн, Кевин МакНэлли, Стивен Грэм, Сэм Клафлин, Астрид Берже-Фрисби, Кит Ричардс, Ричард Гриффитс

Описание: В новой истории о поисках истины, предательстве, вечной молодости и смертельной опасности капитану Джеку Воробью предстоит столкнуться с женщиной из своего прошлого Анжеликой. До самого конца не будет понятно, связывает ли их настоящая любовь, или же Анжелика искусно притворяется, чтобы вместе с Джеком добраться до таинственного источника вечной молодости. Она силой принуждает капитана Джека Воробья взойти на корабль «Месть Королевы Анны», которым управляет коварный злодей Черная Борода. Наш герой оказывается в ситуации, когда он не знает, чего ему бояться больше — ужасного злодея или же свою давнюю подругу.



Видео: 960 x 408 (2:35:1), 23.976 fps, AVC, х264, High@L4.1, ~ 1142 Kbps, 0.122 bit/pixel
Аудио: 48 kHz, AC3 Dolby Digital, 3/2 (L,C,R,l,r) + LFE ch, ~384 kbps


Рип: jeenart

General
Unique ID: 214221491378153399260691551258995988082 (0xA1298EF9B3AC10C59204FB4F465E1672)
Complete name: F:\Мои релизы\Все релизы 10\piraty_karibskogo_morja_[tfile.ru].mkv
Format: Matroska
File size: 1.46 GiB
Duration: 2h 16mn
Overall bit rate: 1 528 Kbps
Encoded date: UTC 2011-08-26 23:25:20
Writing application: mkvmerge v4.6.0 ('Still Crazy After All These Years') сборка от Apr1 2011 21:01:49
Writing library: libebml v1.2.0 + libmatroska v1.1.0

Video
ID: 1
Format: AVC
Format/Info: Advanced Video Codec
Format profile: High@L4.1
Format settings, CABAC: Yes
Format settings, ReFrames: 4 frames
Codec ID: V_MPEG4/ISO/AVC
Duration: 2h 16mn
Bit rate: 1 142 Kbps
Width: 960 pixels
Height: 408 pixels
Display aspect ratio: 2.35:1
Frame rate: 23.976 fps
Color space: YUV
Chroma subsampling: 4:2:0
Bit depth: 8 bits
Scan type: Progressive
Bits/(Pixel*Frame): 0.122
Stream size: 1.06 GiB (73%)
Writing library: x264 core 115 r1937 aa21558
Encoding settings: cabac=1 / ref=3 / deblock=1:-1:-1 / analyse=0x3:0x113 / me=hex / subme=7 / psy=1 / psy_rd=1.00:0.10 / mixed_ref=1 / me_range=16 / chroma_me=1 / trellis=1 / 8x8dct=1 / cqm=0 / deadzone=21,11 / fast_pskip=1 / chroma_qp_offset=-3 / threads=6 / sliced_threads=0 / nr=0 / decimate=1 / interlaced=0 / bluray_compat=0 / constrained_intra=0 / bframes=3 / b_pyramid=2 / b_adapt=1 / b_bias=0 / direct=1 / weightb=1 / open_gop=0 / weightp=2 / keyint=250 / keyint_min=23 / scenecut=40 / intra_refresh=0 / rc_lookahead=40 / rc=2pass / mbtree=1 / bitrate=1142 / ratetol=1.0 / qcomp=0.60 / qpmin=0 / qpmax=69 / qpstep=4 / cplxblur=20.0 / qblur=0.5 / ip_ratio=1.40 / aq=1:1.00

Audio
ID: 2
Format: AC-3
Format/Info: Audio Coding 3
Mode extension: CM (complete main)
Codec ID: A_AC3
Duration: 2h 16mn
Bit rate mode: Constant
Bit rate: 384 Kbps
Channel(s): 6 channels
Channel positions: Front: L C R, Side: L R, LFE
Sampling rate: 48.0 KHz
Bit depth: 16 bits
Compression mode: Lossy
Stream size: 375 MiB (25%)
























Поделиться:




реклама партнёра


Вернуться к началу
 Профиль Отправить личное сообщение  
 
   Похожие торренты   Автор   Торрент   Размер 
В этой теме нет новых непрочитанных сообщений. Пираты Карибского моря: Мертвецы не рассказывают сказки / Pirates of the Caribbean: Dead Men Tell No Tales [Фэнтези, боевик, комедия, приключения, 2017] HDRip-1080p, Dub [Тизер]

salma3

1268 | 18

26.73 МБ

В этой теме нет новых непрочитанных сообщений. Ледовые пираты / The Ice Pirates [фантастика, боевик, комедия, приключения, 1984] BDRip-AVC, Mvo+Sub

salma3

150 | 12

2.05 ГБ

В этой теме нет новых непрочитанных сообщений. Пираты побережья / I pirati della costa / Les pirates de la côte / Pirates of the Coast [Приключения, 1960] DVDRip, Avo

salma3

93 | 31

1.5 ГБ

В этой теме нет новых непрочитанных сообщений. Пираты / Pirates / Hae-jeok: Ba-da-ro gan san-jeok [история, комедия, приключения, 2014] HDRip, dvo [GREEN TEA]

Dracon

568 | 13

2.19 ГБ

В этой теме нет новых непрочитанных сообщений. Пираты / Pirates / Hae-jeok: Ba-da-ro gan san-jeok (Сок Хун Ли) [история, комедия, приключения, 2014] HDRip, dvo [GREEN TEA]

Dracon

1026 | 23

1.46 ГБ

В этой теме нет новых непрочитанных сообщений. Пираты Эгейского моря / O Theos agapaei to haviari [Приключения, биография, история, 2012] HDRip, Mvo

salma3

968 | 61

1.37 ГБ

В этой теме нет новых непрочитанных сообщений. Пираты / Pirates / Hae-jeok: Ba-da-ro gan san-jeok (Сок Хун Ли) [2014, история, комедия, приключения, HDTVRip 720p] dvo

Nickolas3435

1212 | 93

3.77 ГБ


Начать новую тему Ответить на тему  [ 1 сообщение ] 




Для Мосгорсуда, Роскомнадзора и рекламодателей:: mosgorsud-torrent[собачка]yandex.ru