Торрент файл
скачать торрент магнет ссылка Добавлен: 22 янв 2012, 14:49
Размер: 2.15 ГБ
Сидеров: 41
Личеров: 9
Автор

СообщениеДобавлено: 22 янв 2012, 14:49 

Не в сети
Супермодератор
Аватара пользователя
Дата регистрации:
11 апр 2010, 18:10
Спасибо: 5802 / 7
Сообщения: 56779
2199: Космическая одиссея / Space Battleship Yamato

Перевод: Профессиональный (полное дублирование), cубтитры: Английские (полные, отключаемые)
Формат: HDRip, MKV, H.264, AAC
Страна: Япония
Режиссер: Такаши Ямазаки
Жанр: фантастика, боевик, драма, приключения
Продолжительность: 02:18:36
Год выпуска: 2010
В ролях: Такуя Кимура, Меиса Куроки, Тоширо Янагиба, Наото Огата, Хироюки Икеучи, Синъити Цуцуми, Маико, Рейко Такашима, Тошиюки Нишида, Тошихиро Яшиба
Описание: Космический линкор «Ямато» отправляется в опасную космическую экспедицию. Его цель-планета Искандер, которая является последней надеждой разоренной и отравленной радиацией, планеты Земля. Война с далекими пришельцами не прошла бесследно: бескрайние пустыни и разрушенные города, повсеместные мутации, высокий радиационный уровень атмосферы. Планета Искандер хранит нейтрализатор и только он может помочь нашей Родине…

Видео: 1280x536 (2,40:1), 23,976 fps, MPEG4 AVC (х264), High@L4.1 ~1539 kbps avg, 0.094 bit/pixe
Аудио#1:Русский: 48 kHz,AC-3, 6 ch, ~448.00 kbps avg [Профессиональный (полное дублирование)]
Аудио#2:Японский: 48 kHz, AC-3, 2 ch, ~192.00 kbps avg [Оригинал]


Автор РИПа:
Общее
Уникальный идентификатор : 196162486451812077532071279942707975051 (0x9393854A1FDEE815B8232AE7A6A8138B)
Полное имя : f:\Downloads\space_battleship_yamato_[tfile.ru].mkv
Формат : Matroska
Размер файла : 2,15 Гбайт
Продолжительность : 2 ч. 18 м.
Общий поток : 2223 Кбит/сек
Дата кодирования : UTC 2011-08-27 16:08:31
Программа кодирования : mkvmerge v4.6.0 ('Still Crazy After All These Years') сборка от Mar 10 2011 02:50:32
Библиотека кодирования : libebml v1.2.0 + libmatroska v1.1.0

Видео
Идентификатор : 1
Формат : AVC
Формат/Информация : Advanced Video Codec
Профиль формата : High@L4.1
Параметр CABAC формата : Да
Параметр ReFrames формата : 3 кадра
Параметры GOP формата : M=1, N=56
Режим смешивания : Header stripping
Идентификатор кодека : V_MPEG4/ISO/AVC
Продолжительность : 2 ч. 18 м.
Битрейт : 1539 Кбит/сек
Ширина : 1280 пикс.
Высота : 536 пикс.
Соотношение сторон : 2,40:1
Режим частоты кадров : Переменный
Частота кадров : 23,976 кадр/сек
Цветовое пространство : YUV
Подвыборка цветности : 4:2:0
Битовая глубина : 8 бит
Тип развёртки : Прогрессивная
Бит/(Пиксели*Кадры) : 0.094
Размер потока : 1,49 Гбайт (69%)
Библиотека кодирования : x264 core 116 r2019M 9cc407d
Настройки программы : cabac=1 / ref=3 / deblock=1:0:0 / analyse=0x3:0x133 / me=hex / subme=7 / psy=1 / psy_rd=1.00:0.20 / mixed_ref=1 / me_range=16 / chroma_me=1 / trellis=1 / 8x8dct=1 / cqm=0 / deadzone=21,11 / fast_pskip=1 / chroma_qp_offset=-3 / threads=7 / sliced_threads=0 / nr=0 / decimate=1 / interlaced=0 / bluray_compat=0 / constrained_intra=0 / bframes=3 / b_pyramid=1 / b_adapt=2 / b_bias=0 / direct=3 / weightb=1 / open_gop=0 / weightp=2 / keyint=230 / keyint_min=23 / scenecut=40 / intra_refresh=0 / rc=cqp / mbtree=0 / qp=24 / ip_ratio=1.40 / pb_ratio=1.30 / aq=0
Язык : Japanese

Аудио #1
Идентификатор : 2
Формат : AC-3
Формат/Информация : Audio Coding 3
Расширение режима : CM (complete main)
Режим смешивания : Header stripping
Идентификатор кодека : A_AC3
Продолжительность : 2 ч. 18 м.
Вид битрейта : Постоянный
Битрейт : 448 Кбит/сек
Каналы : 6 каналов
Расположение каналов : Front: L C R, Side: L R, LFE
Частота : 48,0 КГц
Битовая глубина : 16 бит
Метод сжатия : С потерями
Размер потока : 444 Мбайт (20%)
Заголовок : DUB
Язык : Russian

Аудио #2
Идентификатор : 3
Формат : AC-3
Формат/Информация : Audio Coding 3
Расширение режима : CM (complete main)
Режим смешивания : Header stripping
Идентификатор кодека : A_AC3
Продолжительность : 2 ч. 18 м.
Вид битрейта : Постоянный
Битрейт : 192 Кбит/сек
Каналы : 2 канала
Расположение каналов : Front: L R
Частота : 48,0 КГц
Битовая глубина : 16 бит
Метод сжатия : С потерями
Размер потока : 190 Мбайт (9%)
Язык : Japanese

Текст
Идентификатор : 4
Формат : UTF-8
Идентификатор кодека : S_TEXT/UTF8
Идентификатор кодека/Информация : UTF-8 Plain Text
Язык : English















Поделиться:




реклама партнёра


Вернуться к началу
 Профиль Отправить личное сообщение  
 
   Похожие торренты   Автор   Торрент   Размер 
В этой теме нет новых непрочитанных сообщений. Космическая станция 76 / Space Station 76 [фантастика, драма, комедия, 2014] WEB-DLRip, Mvo [iTunes]

Dracon

457 | 12

1.37 ГБ

В этой теме нет новых непрочитанных сообщений. Космическая станция 76 / Space Station 76 [фантастика, драма, комедия, 2014] WEB-DL 720p, Mvo [iTunes]

Dracon

394 | 12

2.89 ГБ

В этой теме нет новых непрочитанных сообщений. Космический пират Харлок / Space Pirate Captain Harlock [мультфильм, фантастика, боевик, приключения, 2013] HDRip, Mvo

salma3

1602 | 72

2.05 ГБ

В этой теме нет новых непрочитанных сообщений. Космический пират Харлок / Space Pirate Captain Harlock [мультфильм, фантастика, боевик, приключения, 2013] HDRip, dub [UNRATED | Чистый звук]

Dracon

250 | 6

2.05 ГБ

В этой теме нет новых непрочитанных сообщений. Лапландская одиссея / Napapiirin sankarit [комедия, драма, мелодрама, 2010] HDRip, Mvo

salma3

59 | 2

1.36 ГБ

В этой теме нет новых непрочитанных сообщений. Затерянные в космосе / Lost in Space [фантастика, боевик, триллер, приключения, 1998] BDRip, Dub+Sub

salma3

193 | 14

1.46 ГБ

В этой теме нет новых непрочитанных сообщений. Затерянные в космосе / Lost in Space [фантастика, боевик, триллер, приключения, 1998] BDRip 1080p, Dub+Sub

salma3

89 | 8

4.37 ГБ


Начать новую тему Ответить на тему  [ 1 сообщение ] 




Для Мосгорсуда, Роскомнадзора и рекламодателей:: mosgorsud-torrent[собачка]yandex.ru