Торрент файл
скачать торрент магнет ссылка Добавлен: 22 янв 2012, 14:48
Размер: 694.17 МБ
Сидеров: 7
Личеров: 10
Автор

СообщениеДобавлено: 22 янв 2012, 14:48 

Не в сети
Супермодератор
Аватара пользователя
Дата регистрации:
11 апр 2010, 18:10
Спасибо: 5802 / 7
Сообщения: 56779
[b]Ковбои против пришельцев / Cowboys & Aliens[/b]

Перевод: Профессиональный (полное дублирование), cубтитры: отсутствуют

Формат: TeleSynch, AVI, XviD, MP3

Страна: США

Режиссер: Джон Фавро

Жанр: фантастика, боевик, триллер, вестерн

Продолжительность: 01:53:53

Год выпуска: 2011

В ролях: Дэниэл Крэйг, Харрисон Форд, Эбигейл Спенсер, Бак Тейлор, Мэттью Тейлор, Купер Тейлор, Клэнси Браун, Пол Дано, Крис Браунинг, Адам Бич, Сэм Рокуэлл, Оливия Уайлд

Описание: 1873, Абсолюшен, штат Аризона. В эту глухую американскую провинцию прибывает потерявший память незнакомец. Единственный намек на его прошлое — это странные кандалы на одном из его запястий. Странник быстро узнает, что жители городка не рады незнакомцам, да и вообще они выходят на улицы лишь по приказу полковника Долархайда, правящего в этой местности железной рукой.

Вскоре странное поведение жителей объясняется. Периодически с неба обрушиваются ужасающие создания, которые забирают все, что им заблагорассудится и держат город в паническом страхе. Главный герой, постепенно вспоминающий о том, что с ним произошло, становится единственной надеждой города на спасение.


[/field]

Видео: 720x576 (1.25:1), 29.970 fps, XviD build 46 ~710 kbps avg, 0.06 bit/pixel
Аудио: 44.100 kHz, MPEG Layer 3, 2 ch, ~128.00 kbps avg

General
Complete name: C:\Новая папка\kovboi_protiv_prishelcev_[tfile.ru].avi
Format: AVI
Format/Info: Audio Video Interleave
File size: 694 MiB
Duration: 1h 53mn
Overall bit rate: 852 Kbps
Writing application: Lavf51.12.1

Video
ID: 0
Format: xvid
Codec ID: xvid
Duration: 1h 53mn
Bit rate: 711 Kbps
Width: 720 pixels
Height: 576 pixels
Display aspect ratio: 5:4
Frame rate: 29.970 fps
Standard: PAL
Bits/(Pixel*Frame): 0.057
Stream size: 579 MiB (83%)

Audio
ID: 1
Format: MPEG Audio
Format version: Version 1
Format profile: Layer 3
Mode: Joint stereo
Mode extension: MS Stereo
Codec ID: 55
Codec ID/Hint: MP3
Duration: 1h 53mn
Bit rate mode: Constant
Bit rate: 128 Kbps
Channel(s): 2 channels
Sampling rate: 44.1 KHz
Compression mode: Lossy
Stream size: 104 MiB (15%)
Alignment: Aligned on interleaves
Interleave, duration: 26 ms (0.78 video frame)
Interleave, preload duration: 26 ms
Writing library: LAME3.97

















Поделиться:




реклама партнёра


Вернуться к началу
 Профиль Отправить личное сообщение  
 
   Похожие торренты   Автор   Торрент   Размер 
В этой теме нет новых непрочитанных сообщений. Ковбои / The Cowboys [Драма, комедия, приключения, вестерн, 1972] BDRip 720p, Mvo+Sub

salma3

1 | 3

4.63 ГБ

В этой теме нет новых непрочитанных сообщений. Ковбои / Les cowboys [драма, 2015] HDRip, Mvo

salma3

365 | 59

1.37 ГБ

В этой теме нет новых непрочитанных сообщений. Ковбои / Les cowboys [драма, 2015] BDRip 720p, Mvo

salma3

136 | 18

4.24 ГБ

В этой теме нет новых непрочитанных сообщений. Революция / Revolution (Стив Бойум, Джон Фавро) (Сезон 1-2, Серии 1-42 из 42) [2012-2014, Фантастика , Драма , WEBDLRip-AVC 720р] [DD5.1] [MVO] [Rumedia+LostFilm]

Nikolai.Baranov

0 | 2

43.76 ГБ

В этой теме нет новых непрочитанных сообщений. Медленный Запад / Slow West (Джон Маклин) [боевик, триллер, вестерн, 2015] DVD5, Avo

Dracon

123 | 19

4.11 ГБ

В этой теме нет новых непрочитанных сообщений. Медленный Запад / Slow West (Джон Маклин) [боевик, триллер, вестерн, 2015] HDRip [ColdFilm]

Dracon

0 | 0

1.37 ГБ

В этой теме нет новых непрочитанных сообщений. Медленный Запад / Slow West (Джон Маклин) [боевик, триллер, вестерн, 2015] BDRip 1080p, Avo+dvo+Sub

Dracon

35 | 7

7.87 ГБ


Начать новую тему Ответить на тему  [ 1 сообщение ] 




Для Мосгорсуда, Роскомнадзора и рекламодателей:: mosgorsud-torrent[собачка]yandex.ru