Торрент файл
скачать торрент магнет ссылка Добавлен: 22 янв 2012, 14:48
Размер: 2.1 ГБ
Сидеров: 20
Личеров: 5
Автор

СообщениеДобавлено: 22 янв 2012, 14:48 

Не в сети
Супермодератор
Аватара пользователя
Дата регистрации:
11 апр 2010, 18:10
Спасибо: 5962 / 7
Сообщения: 56765
Плезантвиль / Pleasantville


Перевод: Профессиональный (многоголосый, закадровый), cубтитры: отсутствуют
Формат: HDRip-AVC, MKV, H.264, AC3
Страна: США
Режиссер: Гэри Росс
Жанр: фэнтези, драма, комедия
Продолжительность: 02:04:31
Год выпуска: 1998

В ролях: Тоби Магуайр, Риз Уизерспун, Уильям Х. Мэйси, Джоан Аллен, Джефф Дэниелс, Дж.Т. Уолш, Дон Ноттс, Марли Шелтон, Джейн Качмарек, Джузеппе Эндрюс

Описание: Дэвид Вагнер — дитя девяностых. Но он увлечен телевизионным шоу «Плезантвиль», где действие происходит в 50-е годы в небольшом одноименном городке, где все шикарны, веселы и непорочны, и жизнь удивительно приятна.
Завороженный этим утопическим миром, Дэвид воображает себя в «Плезантвиле», где он наконец-то избавился бы от своей взбалмошной и помешанной на парнях сестры Дженнифер. И однажды вечером жизнь совершает причудливый поворот: странный телемастер вручает Дэвиду необычный пульт дистанционного управления, который отправляет его вместе с сестрой прямо в Плезантвиль. Визит пришельцев не прошел для города бесследно, удивительным образом изменив судьбы его обитателей.




Видео: 944 x 528 (1:78:1), 23.976 fps, AVC, х264, High@L4.1, ~ 2032 Kbps, 0.170 bit/pixel
Аудио: 48 kHz, AC3 Dolby Digital, 3/2 (L,C,R,l,r) + LFE ch, ~384 kbps


Рип: jeenart

General
Unique ID: 251541805568672207317070468040192899165 (0xBD3D308711BCDD458D390B1B11EB385D)
Complete name: F:\Мои релизы\Все релизы 10\pleasantville_[tfile.ru].mkv
Format: Matroska
File size: 2.10 GiB
Duration: 2h 4mn
Overall bit rate: 2 417 Kbps
Encoded date: UTC 2011-09-02 12:59:09
Writing application: mkvmerge v4.6.0 ('Still Crazy After All These Years') сборка от Apr1 2011 21:01:49
Writing library: libebml v1.2.0 + libmatroska v1.1.0

Video
ID: 1
Format: AVC
Format/Info: Advanced Video Codec
Format profile: High@L4.1
Format settings, CABAC: Yes
Format settings, ReFrames: 4 frames
Format settings, GOP: M=4, N=32
Codec ID: V_MPEG4/ISO/AVC
Duration: 2h 4mn
Bit rate: 2 032 Kbps
Width: 944 pixels
Height: 528 pixels
Display aspect ratio: 16:9
Frame rate: 23.976 fps
Color space: YUV
Chroma subsampling: 4:2:0
Bit depth: 8 bits
Scan type: Progressive
Bits/(Pixel*Frame): 0.170
Stream size: 1.73 GiB (82%)
Writing library: x264 core 115 r1937 aa21558
Encoding settings: cabac=1 / ref=3 / deblock=1:-1:-1 / analyse=0x3:0x113 / me=hex / subme=7 / psy=1 / psy_rd=1.00:0.10 / mixed_ref=1 / me_range=16 / chroma_me=1 / trellis=1 / 8x8dct=1 / cqm=0 / deadzone=21,11 / fast_pskip=1 / chroma_qp_offset=-3 / threads=6 / sliced_threads=0 / nr=0 / decimate=1 / interlaced=0 / bluray_compat=0 / constrained_intra=0 / bframes=3 / b_pyramid=2 / b_adapt=1 / b_bias=0 / direct=1 / weightb=1 / open_gop=0 / weightp=2 / keyint=250 / keyint_min=23 / scenecut=40 / intra_refresh=0 / rc_lookahead=40 / rc=2pass / mbtree=1 / bitrate=2032 / ratetol=1.0 / qcomp=0.60 / qpmin=0 / qpmax=69 / qpstep=4 / cplxblur=20.0 / qblur=0.5 / ip_ratio=1.40 / aq=1:1.00

Audio
ID: 2
Format: AC-3
Format/Info: Audio Coding 3
Mode extension: CM (complete main)
Codec ID: A_AC3
Duration: 2h 4mn
Bit rate mode: Constant
Bit rate: 384 Kbps
Channel(s): 6 channels
Channel positions: Front: L C R, Side: L R, LFE
Sampling rate: 48.0 KHz
Bit depth: 16 bits
Compression mode: Lossy
Stream size: 342 MiB (16%)
























Поделиться:




реклама партнёра


Вернуться к началу
 Профиль Отправить личное сообщение  
 
   Похожие торренты   Автор   Торрент   Размер 
В этой теме нет новых непрочитанных сообщений. Плезантвиль / Pleasantville [фэнтези, драма, комедия, 1998] BDRip 1080p, Mvo

salma3

46 | 4

4.38 ГБ

В этой теме нет новых непрочитанных сообщений. Взрослые новички / Adult Beginners (Росс Кац) [драма, комедия, 2014] HDRip, Dub [iTunes]

Dracon

2486 | 373

1.37 ГБ

В этой теме нет новых непрочитанных сообщений. Выбор / The Choice (Росс Кац / Ross Katz) [2016г., драма, мелодрама, HDRip] MVO

Alfredovich

0 | 0

1.47 ГБ

В этой теме нет новых непрочитанных сообщений. Взрослые новички / Adult Beginners (Росс Кац) [драма, комедия, 2014] BDRip 1080p, Dub [iTunes]

Dracon

180 | 45

9.12 ГБ

В этой теме нет новых непрочитанных сообщений. Голосок / Little Voice [драма, мелодрама, комедия, музыка, 1998] HDRip, Dvo

salma3

25 | 7

1.45 ГБ

В этой теме нет новых непрочитанных сообщений. Один шанс на двоих / 1 chance sur 2 [боевик, драма, комедия, 1998] HDRip-AVC, Mvo

salma3

56 | 20

1.45 ГБ

В этой теме нет новых непрочитанных сообщений. Пророчество 2 / The Prophecy II [ужасы, фэнтези, триллер, 1998] HDRip-AVC, Mvo

salma3

16 | 1

746.6 МБ


Начать новую тему Ответить на тему  [ 1 сообщение ] 




Для Мосгорсуда, Роскомнадзора и рекламодателей:: mosgorsud-torrent[собачка]yandex.ru