Торрент файл
скачать торрент магнет ссылка Добавлен: 22 янв 2012, 14:47
Размер: 2.18 ГБ
Сидеров: 43
Личеров: 6
Автор

СообщениеДобавлено: 22 янв 2012, 14:47 

Не в сети
Супермодератор
Аватара пользователя
Дата регистрации:
11 апр 2010, 18:10
Спасибо: 5801 / 7
Сообщения: 56779
[b]Далеко по соседству / Quartier lointain[/b]

Перевод: Профессиональный (многоголосый, закадровый)[лицензия], cубтитры: отсутствуют

Формат: HDRip-AVC, MKV, H.264, AC3

Страна: Германия, Франция, Бельгия, Люксембург

Режиссер: Сэм Гарбарски

Жанр: фэнтези, драма

Продолжительность: 01:41:12

Год выпуска: 2010

В ролях: Паскаль Греггори, Джонатан Цассаи, Александра Мария Лара, Лео Легран, Лаура Мартин, Пьер-Луи Беллет, Таня Гарбарски, Луис Бьянчи

Описание: К пятидесяти годам у Томаса за спиной престижная работа, счет в банке, жена и дети. А впереди — серая и неинтересная жизнь. Однажды Томас по ошибке садится не на тот поезд и оказывается в городе своего детства. Именно здесь сорок лет назад случилась страшная трагедия, от которой мать так и не смогла оправиться.
Чудесное превращение дает Томасу возможность вернуться в прошлое. Оказавшись в собственном теле в четырнадцатилетнем возрасте, но с опытом пятидесятилетней жизни, он вновь встречает первую школьную любовь, старых друзей, любимую сестру и верного пса. Встречает и отца, который пока еще не ушел из семьи. Возможно, весь смысл удивительного путешествия в том и состоит, чтобы предотвратить трагедию?..


[/field]

Видео: 1280x696 (2.35:1), 24 fps,AVC, х264, High@L3.1,~2 642 kbps avg, 0.124 bit/pixel

Аудио: 48 kHz, AC3 Dolby Digital, 3/2 (L,C,R,l,r) + LFE ch, ~448 kbps

Релиз группа:

General
Unique ID: 188301726703154392083705628321752590835 (0x8DA997E94EC40EF7B4EB377BF1F0A9F3)
Complete name: E:\Новая папка (3)\Quartier lointain.[Element-Team].mkv
Format: Matroska
File size: 2.18 GiB
Duration: 1h 41mn
Overall bit rate: 3 090 Kbps
Movie name: Rip by Aspro
Encoded date: UTC 2011-09-05 16:14:43
Writing application: mkvmerge v3.2.0 ('Beginnings') built on Feb 12 2010 16:46:17
Writing library: libebml v0.7.9 + libmatroska v0.8.1

Video
ID: 1
Format: AVC
Format/Info: Advanced Video Codec
Format profile: High@L3.1
Format settings, CABAC: Yes
Format settings, ReFrames: 2 frames
Codec ID: V_MPEG4/ISO/AVC
Duration: 1h 41mn
Bit rate: 2 642 Kbps
Width: 1 280 pixels
Height: 696 pixels
Display aspect ratio: 16:9
Original display aspect ratio: 16:9
Frame rate mode: Variable
Frame rate: 24.000 fps
Color space: YUV
Chroma subsampling: 4:2:0
Bit depth: 8 bits
Scan type: Progressive
Bits/(Pixel*Frame): 0.124
Stream size: 1.82 GiB (84%)
Writing library: x264 core 112 r1834 a51816a
Encoding settings: cabac=1 / ref=2 / deblock=1:0:0 / analyse=0x3:0x113 / me=hex / subme=6 / psy=1 / psy_rd=1.00:0.00 / mixed_ref=0 / me_range=16 / chroma_me=1 / trellis=0 / 8x8dct=1 / cqm=0 / deadzone=21,11 / fast_pskip=1 / chroma_qp_offset=-2 / threads=2 / sliced_threads=0 / nr=0 / decimate=1 / interlaced=0 / constrained_intra=0 / bframes=3 / b_pyramid=0 / b_adapt=1 / b_bias=0 / direct=3 / weightb=1 / open_gop=0 / weightp=2 / keyint=250 / keyint_min=25 / scenecut=40 / intra_refresh=0 / rc_lookahead=40 / rc=2pass / mbtree=1 / bitrate=2642 / ratetol=1.0 / qcomp=0.60 / qpmin=10 / qpmax=51 / qpstep=4 / cplxblur=20.0 / qblur=0.5 / ip_ratio=1.41 / aq=1:1.00
Language: English

Audio
ID: 2
Format: AC-3
Format/Info: Audio Coding 3
Mode extension: CM (complete main)
Codec ID: A_AC3
Duration: 1h 41mn
Bit rate mode: Constant
Bit rate: 448 Kbps
Channel(s): 6 channels
Channel positions: Front: L C R, Side: L R, LFE
Sampling rate: 48.0 KHz
Bit depth: 16 bits
Compression mode: Lossy
Stream size: 324 MiB (14%)
Title: Профессиональное (многоголосое) [лицензия]
Language: Russian









Поделиться:




реклама партнёра


Вернуться к началу
 Профиль Отправить личное сообщение  
 
   Похожие торренты   Автор   Торрент   Размер 
В этой теме нет новых непрочитанных сообщений. Далеко по соседству / Quartier lointain [Фэнтези, драма, 2010] BDRip 720p, Mvo+Sub

salma3

68 | 0

5.86 ГБ

В этой теме нет новых непрочитанных сообщений. Hot Teen Next Door 26 / Горячей Подросток По Соседству 26 (2016) WEB-DL

Dile-1

2 | 1

2.25 ГБ

В этой теме нет новых непрочитанных сообщений. Ангел по соседству / Christmas Angel [комедия, мелодрама, семейный, 2012] DVDRip, Mvo [НТВ+]

Dracon

184 | 23

1.46 ГБ

В этой теме нет новых непрочитанных сообщений. Вместе / Manam [фэнтези, драма, комедия, 2014] HDRip, Mvo+Sub

salma3

25 | 7

2.2 ГБ

В этой теме нет новых непрочитанных сообщений. ПиКей / PK [Фэнтези, драма, мелодрама, комедия, 2014] HDRip, Dvo+Sub

salma3

1345 | 60

1.46 ГБ

В этой теме нет новых непрочитанных сообщений. Крестовые походы / Dark Relic [ужасы, фантастика, фэнтези, 2010] HDRip, Mvo

salma3

4 | 2

1.37 ГБ

В этой теме нет новых непрочитанных сообщений. Прекрасные создания [фэнтези, драма, мелодрама, 2013] HDRip-AVC, Dub [Лицензия]

Dracon

7 | 2

2.08 ГБ


Начать новую тему Ответить на тему  [ 1 сообщение ] 




Для Мосгорсуда, Роскомнадзора и рекламодателей:: mosgorsud-torrent[собачка]yandex.ru