Торрент файл
скачать торрент магнет ссылка Добавлен: 22 янв 2012, 14:46
Размер: 2.39 ГБ
Сидеров: 24
Личеров: 8
Автор

СообщениеДобавлено: 22 янв 2012, 14:46 

Не в сети
Супермодератор
Аватара пользователя
Дата регистрации:
11 апр 2010, 18:10
Спасибо: 5960 / 7
Сообщения: 56765
Последний отсчет / The Final Countdown

Перевод: Профессиональный (многоголосый, закадровый), cубтитры: Английские (полные, отключаемые)
Формат: HDRip, MKV, H.264, AC3
Страна: США
Режиссер: Дон Тейлор
Жанр: фантастика, драма, приключения, военный
Продолжительность: 01:42:28
Год выпуска: 1980
В ролях: Кирк Дуглас, Мартин Шин, Кэтрин Росс, Джеймс Фарентино, Рон О’Нил, Чарльз Дёрнинг, Виктор Мохика, Джеймс Коулмэн, Сун-Тек Ох, Джо Лоури
Описание: Авианосец ВМФ США «Нимитц» попадает в необычный шторм, и оказывается перемещенным во времени на сорок лет. До нападения японцев на Перл-Харбор осталось несколько часов и у летчиков с «Нимица» есть возможность предотвратить трагедию. Но имеют ли они право нарушить ход истории?

Видео: 1280x544 (2,35:1), 24 fps, MPEG4 AVC (х264), High@L4.1 ~2578kbps avg, 0.154
Аудио#1:Русский: 48 kHz,AC-3, 1 ch, ~128.00 kbps avg [Профессиональный (многоголосый, закадровый)(Петербург-Пятый канал)]
Аудио#2:Русский: 48 kHz,AC-3, 2 ch, ~192.00 kbps avg [ Профессиональный (двухголосый) (Эдуард Лопушинский, Светлана Левитан)]
Аудио#3:Английский: 48 kHz, AC-3, 6 ch, ~384.00 kbps avg [Внешним файлом: Оригинал]


Автор РИПа:
Общее
Уникальный идентификатор : 194598787644367805822103131357386915695 (0x92665CFC6AB0B70CA69375FD09783F6F)
Полное имя : f:\Downloads\the_final_countdown_[tfile.ru]\the_final_countdown_[tfile.ru].mkv
Формат : Matroska
Размер файла : 2,12 Гбайт
Продолжительность : 1 ч. 42 м.
Общий поток : 2957 Кбит/сек
Дата кодирования : UTC 2011-09-06 17:26:36
Программа кодирования : mkvmerge v4.6.0 ('Still Crazy After All These Years') сборка от Mar 10 2011 02:50:32
Библиотека кодирования : libebml v1.2.0 + libmatroska v1.1.0
Attachment : Yes

Видео
Идентификатор : 1
Формат : AVC
Формат/Информация : Advanced Video Codec
Профиль формата : High@L4.1
Параметр CABAC формата : Да
Параметр ReFrames формата : 3 кадра
Режим смешивания : Header stripping
Идентификатор кодека : V_MPEG4/ISO/AVC
Продолжительность : 1 ч. 42 м.
Битрейт : 2578 Кбит/сек
Ширина : 1280 пикс.
Высота : 544 пикс.
Соотношение сторон : 2,35:1
Режим частоты кадров : Переменный
Частота кадров : 24,000 кадр/сек
Цветовое пространство : YUV
Подвыборка цветности : 4:2:0
Битовая глубина : 8 бит
Тип развёртки : Прогрессивная
Бит/(Пиксели*Кадры) : 0.154
Размер потока : 1,85 Гбайт (87%)
Библиотека кодирования : x264 core 116 r2019M 9cc407d
Настройки программы : cabac=1 / ref=3 / deblock=1:0:0 / analyse=0x3:0x133 / me=hex / subme=7 / psy=1 / psy_rd=1.00:0.20 / mixed_ref=1 / me_range=16 / chroma_me=1 / trellis=1 / 8x8dct=1 / cqm=0 / deadzone=21,11 / fast_pskip=1 / chroma_qp_offset=-3 / threads=7 / sliced_threads=0 / nr=0 / decimate=1 / interlaced=0 / bluray_compat=0 / constrained_intra=0 / bframes=3 / b_pyramid=1 / b_adapt=2 / b_bias=0 / direct=3 / weightb=1 / open_gop=0 / weightp=2 / keyint=240 / keyint_min=24 / scenecut=40 / intra_refresh=0 / rc=cqp / mbtree=0 / qp=23 / ip_ratio=1.40 / pb_ratio=1.30 / aq=0
Язык : English

Аудио #1
Идентификатор : 2
Формат : AC-3
Формат/Информация : Audio Coding 3
Расширение режима : CM (complete main)
Режим смешивания : Header stripping
Идентификатор кодека : A_AC3
Продолжительность : 1 ч. 42 м.
Вид битрейта : Постоянный
Битрейт : 128 Кбит/сек
Каналы : 1 канал
Расположение каналов : Front: C
Частота : 48,0 КГц
Битовая глубина : 16 бит
Метод сжатия : С потерями
Размер потока : 93,8 Мбайт (4%)
Заголовок : MVO
Язык : Russian

Аудио #2
Идентификатор : 3
Формат : AC-3
Формат/Информация : Audio Coding 3
Расширение режима : CM (complete main)
Режим смешивания : Header stripping
Идентификатор кодека : A_AC3
Продолжительность : 1 ч. 42 м.
Вид битрейта : Постоянный
Битрейт : 192 Кбит/сек
Каналы : 2 канала
Расположение каналов : Front: L R
Частота : 48,0 КГц
Битовая глубина : 16 бит
Метод сжатия : С потерями
Размер потока : 141 Мбайт (6%)
Заголовок : DVO
Язык : Russian

Текст
Идентификатор : 4
Формат : UTF-8
Идентификатор кодека : S_TEXT/UTF8
Идентификатор кодека/Информация : UTF-8 Plain Text
Язык : English

Меню
00:00:00.000 : de:1. Titelsequenz
00:06:54.667 : de:2. Willkommen An Board
00:15:09.542 : de:3. Das Phanomen
00:19:47.583 : de:4. Gefechtsalarm
00:30:10.917 : de:5. Spuren Der Vergangenheit
00:39:27.625 : de:6. Feindkontakt
00:51:42.833 : de:7. Uberlebende
00:57:20.417 : de:8. Geschichte Schreiben
01:05:14.208 : de:9. Der Kriegsgefangene
01:14:31.292 : de:10. Der Senator
01:20:05.542 : de:11.Ansprache Des Commanders
01:24:33.875 : de:12. Auf Abfangkurs
01:30:40.167 : de:13. Zuruck In Die Zukunft
01:35:39.708 : de:14. Homebase / Abspann












Поделиться:




реклама партнёра


Вернуться к началу
 Профиль Отправить личное сообщение  
 
   Похожие торренты   Автор   Торрент   Размер 
В этой теме нет новых непрочитанных сообщений. Айк: Обратный отсчет / Ike: Countdown to D-Day [драма, военный, история, 2004] WEB-DLRip, Avo

salma3

28 | 2

1.46 ГБ

В этой теме нет новых непрочитанных сообщений. Обратный отсчёт / Countdown (Джон Стокуэлл / John Stockwell) [2016г., боевик, криминал, WEB-DL 720p] mvo

Alfredovich

689 | 65

2.02 ГБ

В этой теме нет новых непрочитанных сообщений. Терминатор: Генезис / Terminator: Genisys (Алан Тейлор) [фантастика, боевик, триллер, приключения, 2015] HDRip, Dub [iTunes]

Dracon

5200 | 189

1.45 ГБ

В этой теме нет новых непрочитанных сообщений. Терминатор: Генезис / Terminator: Genisys (Алан Тейлор) [фантастика, боевик, триллер, приключения, 2015] HDRip, Dub [iTunes]

Dracon

653 | 16

2.05 ГБ

В этой теме нет новых непрочитанных сообщений. Последнее метро / Le dernier metro [Драма, мелодрама, военный, 1980] HDRip, Mvo

salma3

13 | 1

1.37 ГБ

В этой теме нет новых непрочитанных сообщений. Кингсглейв: Последняя фантазия XV / Kingsglaive: Final Fantasy XV (Такэси Нодзуэ) [2016, мультфильм, фантастика, фэнтези, драма, приключения, HDRip | iTunes] mvo

marya111

2 | 2

2.05 ГБ

В этой теме нет новых непрочитанных сообщений. Последний экзамен / Final Exam [Ужасы, триллер, 1981] HDRip-AVC, Avo

salma3

16 | 10

742.4 МБ


Начать новую тему Ответить на тему  [ 1 сообщение ] 




Для Мосгорсуда, Роскомнадзора и рекламодателей:: mosgorsud-torrent[собачка]yandex.ru