Торрент файл
скачать торрент магнет ссылка Добавлен: 22 янв 2012, 14:46
Размер: 2.21 ГБ
Сидеров: 8
Личеров: 7
Автор

СообщениеДобавлено: 22 янв 2012, 14:46 

Не в сети
Супермодератор
Аватара пользователя
Дата регистрации:
11 апр 2010, 18:10
Спасибо: 5802 / 7
Сообщения: 56779
Вторжение похитителей тел / Invasion of the Body Snatchers

Перевод: Профессиональный (многоголосый, закадровый), cубтитры: отсутствуют
Формат: HDRip, MKV, H.264, AC3
Страна: США
Режиссер: Филип Кауфман
Жанр: фантастика, ужасы, детектив
Продолжительность: 01:55:37
Год выпуска: 1978
В ролях: Дональд Сазерленд, Брук Эдамс, Джефф Голдблюм, Вероника Картрайт, Леонард Нимой, Арт Хиндл, Лилия Гольдони, Кевин МакКарти, Дон Сигел, Том Ладди
Описание: Сан-Франциско, 1970-е годы. После сильного ливня по всему городу распускаются загадочные цветы. Биолог Элизабет Дрисколл приносит один из них домой. И вскоре замечает, что ее приятель Джеффри странно себя ведет. Элизабет обращается за советом к своему другу Метью Бэннэллу, и с удивлением узнает, что она не единственная, кто столкнулся с такой проблемой. Похоже, что очень многие в городе начинают совершать несвойственные им поступки.

Видео: 1280x720 (16:9), 23,976 fps, MPEG4 AVC (х264), High@L4.1 ~1976kbps avg, 0.089
Аудио#1:Русский: 48 kHz,AC-3, 2 ch, ~192.00 kbps avg [Профессиональный (многоголосый, закадровый)]
Аудио#2:Украинский: 48 kHz,AC-3, 2 ch, ~192.00 kbps avg [Профессиональный (многоголосый, закадровый)]
Аудио#3:Английский: 48 kHz, AC-3, 6 ch, ~384.00 kbps avg [Оригинал]


Автор РИПа:
Общее
Уникальный идентификатор : 235948070647833256024520235539522297208 (0xB181F2098ADBC318883D441A8F229D7
Полное имя : f:\Downloads\invasion_of_the_body_snatchers_[tfile.ru].mkv
Формат : Matroska
Размер файла : 2,21 Гбайт
Продолжительность : 1 ч. 55 м.
Общий поток : 2731 Кбит/сек
Дата кодирования : UTC 2011-08-24 11:34:08
Программа кодирования : mkvmerge v4.6.0 ('Still Crazy After All These Years') сборка от Mar 10 2011 02:50:32
Библиотека кодирования : libebml v1.2.0 + libmatroska v1.1.0

Видео
Идентификатор : 1
Формат : AVC
Формат/Информация : Advanced Video Codec
Профиль формата : High@L4.1
Параметр CABAC формата : Да
Параметр ReFrames формата : 3 кадра
Режим смешивания : Header stripping
Идентификатор кодека : V_MPEG4/ISO/AVC
Продолжительность : 1 ч. 55 м.
Битрейт : 1976 Кбит/сек
Ширина : 1280 пикс.
Высота : 720 пикс.
Соотношение сторон : 16:9
Режим частоты кадров : Переменный
Частота кадров : 23,976 кадр/сек
Цветовое пространство : YUV
Подвыборка цветности : 4:2:0
Битовая глубина : 8 бит
Тип развёртки : Прогрессивная
Бит/(Пиксели*Кадры) : 0.089
Размер потока : 1,54 Гбайт (70%)
Библиотека кодирования : x264 core 116 r2019M 9cc407d
Настройки программы : cabac=1 / ref=3 / deblock=1:0:0 / analyse=0x3:0x133 / me=hex / subme=7 / psy=1 / psy_rd=1.00:0.20 / mixed_ref=1 / me_range=16 / chroma_me=1 / trellis=1 / 8x8dct=1 / cqm=0 / deadzone=21,11 / fast_pskip=1 / chroma_qp_offset=-3 / threads=7 / sliced_threads=0 / nr=0 / decimate=1 / interlaced=0 / bluray_compat=0 / constrained_intra=0 / bframes=3 / b_pyramid=1 / b_adapt=2 / b_bias=0 / direct=3 / weightb=1 / open_gop=0 / weightp=2 / keyint=230 / keyint_min=23 / scenecut=40 / intra_refresh=0 / rc_lookahead=0 / rc=2pass / mbtree=0 / bitrate=1976 / ratetol=1.0 / qcomp=0.60 / qpmin=10 / qpmax=51 / qpstep=4 / cplxblur=20.0 / qblur=0.5 / vbv_maxrate=31250 / vbv_bufsize=31250 / nal_hrd=none / ip_ratio=1.40 / pb_ratio=1.30 / aq=1:1.00
Язык : English

Аудио #1
Идентификатор : 2
Формат : AC-3
Формат/Информация : Audio Coding 3
Расширение режима : CM (complete main)
Режим смешивания : Header stripping
Идентификатор кодека : A_AC3
Продолжительность : 1 ч. 55 м.
Вид битрейта : Постоянный
Битрейт : 192 Кбит/сек
Каналы : 2 канала
Расположение каналов : Front: L R
Частота : 48,0 КГц
Битовая глубина : 16 бит
Метод сжатия : С потерями
Размер потока : 159 Мбайт (7%)
Заголовок : MVO
Язык : Russian

Аудио #2
Идентификатор : 3
Формат : AC-3
Формат/Информация : Audio Coding 3
Расширение режима : CM (complete main)
Режим смешивания : Header stripping
Идентификатор кодека : A_AC3
Продолжительность : 1 ч. 55 м.
Вид битрейта : Постоянный
Битрейт : 192 Кбит/сек
Каналы : 2 канала
Расположение каналов : Front: L R
Частота : 48,0 КГц
Битовая глубина : 16 бит
Метод сжатия : С потерями
Размер потока : 159 Мбайт (7%)
Заголовок : MVO
Язык : Ukrainian

Аудио #3
Идентификатор : 4
Формат : AC-3
Формат/Информация : Audio Coding 3
Расширение режима : CM (complete main)
Режим смешивания : Header stripping
Идентификатор кодека : A_AC3
Продолжительность : 1 ч. 55 м.
Вид битрейта : Постоянный
Битрейт : 384 Кбит/сек
Каналы : 6 каналов
Расположение каналов : Front: L C R, Side: L R, LFE
Частота : 48,0 КГц
Битовая глубина : 16 бит
Метод сжатия : С потерями
Размер потока : 318 Мбайт (14%)
Язык : English












Поделиться:




реклама партнёра


Вернуться к началу
 Профиль Отправить личное сообщение  
 
   Похожие торренты   Автор   Торрент   Размер 
В этой теме нет новых непрочитанных сообщений. Похитители тел / Body Snatchers [ужасы, фантастика, триллер, детектив, 1993] WEB-DL 720p, Mvo

salma3

6 | 1

3.18 ГБ

В этой теме нет новых непрочитанных сообщений. Похитители тел / Body Snatchers [Фантастика, Ужасы, 1993] DVDRip, Dub

salma3

0 | 2

1.46 ГБ

В этой теме нет новых непрочитанных сообщений. Вторжение гигантских пауков / The Giant Spider Invasion [ужасы, фантастика, 1975] DVDRip, Avo

salma3

1 | 3

1.46 ГБ

В этой теме нет новых непрочитанных сообщений. Сдохни! / Вторжение в Росвелл / Invasion Roswell [фантастика, боевик, 2013] HDRip, Mvo

Dracon

664 | 22

1.37 ГБ

В этой теме нет новых непрочитанных сообщений. Сдохни! / Вторжение в Росвелл / Invasion Roswell [фантастика, боевик, 2013] BDRip 720p, Mvo

Dracon

269 | 4

3.39 ГБ

В этой теме нет новых непрочитанных сообщений. Вторжение в Розуэлл / Сдохни! / Invasion Roswell / Exterminators / Battle: Earth [фантастика, боевик, 2013] BDRip 1080p, Dvo

salma3

178 | 20

7.04 ГБ

В этой теме нет новых непрочитанных сообщений. Вторжение в США / Invasion U.S.A. [Боевик, 1985] BDRip 1080p, Mvo+Dvo+Avo+Sub

salma3

50 | 64

12.75 ГБ


Начать новую тему Ответить на тему  [ 1 сообщение ] 




Для Мосгорсуда, Роскомнадзора и рекламодателей:: mosgorsud-torrent[собачка]yandex.ru