Торрент файл
скачать торрент магнет ссылка Добавлен: 22 янв 2012, 14:45
Размер: 2.04 ГБ
Сидеров: 818
Личеров: 20
Автор

СообщениеДобавлено: 22 янв 2012, 14:45 

Не в сети
Супермодератор
Аватара пользователя
Дата регистрации:
11 апр 2010, 18:10
Спасибо: 5941 / 7
Сообщения: 56776
Тор / Thor



Перевод: Профессиональный (полное дублирование),субтитры: отсутствуют
Формат: HDRip-AVC, MKV, H.264, AC3
Страна: США
Жанр: фэнтези, боевик, драма, приключения
Продолжительность: 01:54:00
Режиссер: Кеннет Брэна/ Kenneth Branagh
Год выпуска: 2011

В ролях: Крис Хемсворт, Натали Портман, Энтони Хопкинс, Том Хиддлстон ,Стеллан Скарсгард, Кэт Деннингс, Кларк Грегг, Идрис Эльба, Колм Фиор, Рэй Стивенсон

Описание:Эпическое приключение происходит как на нашей планете Земля, так и в вымышленном королевстве богов Асгарде. В центре истории — Могучий Тор, сильный, но высокомерный воин, чьи безрассудные поступки возрождают древнюю войну в Асгарде. Тора отправляют в ссылку на Землю, лишают сил и заставляют жить среди обычных людей в качестве наказания…

________

Видео: 1280 x 544 (2:35:1), 23.976 fps, AVC (х264), High@L4.0, ~ 2152 Kbps,0.129 bit/pixel
Аудио: 48 kHz, AC3 Dolby Digital, 3/2 (L,C,R,l,r) + LFE ch, ~384 kbps


Автор РИПа:ddimmon22
Общее
Уникальный идентификатор: 214654560980072566241189807327105124455 (0xA17CF6F48D8DA86C9A5F0EB256C20867)
Полное имя: K:\РИПЫ\tor_[tfile.ru].mkv
Формат: Matroska
Версия формата: Version 2
Размер файла: 2,04 Гбайт
Продолжительность: 1 ч. 54 м.
Общий поток: 2537 Кбит/сек
Дата кодирования: UTC 2011-09-10 00:44:28
Программа кодирования: mkvmerge v4.9.1 ('Ich will') сборка от Aug 10 2011 09:31:20
Библиотека кодирования: libebml v1.2.1 + libmatroska v1.2.0

Видео
Идентификатор: 1
Формат: AVC
Формат/Информация: Advanced Video Codec
Профиль формата: High@L4.0
Параметр CABAC формата: Да
Параметр ReFrames формата: 8 кадров
Идентификатор кодека: V_MPEG4/ISO/AVC
Продолжительность: 1 ч. 54 м.
Битрейт: 2152 Кбит/сек
Ширина: 1280 пикс.
Высота: 544 пикс.
Соотношение сторон: 2,35:1
Частота кадров: 23,976 кадр/сек
Цветовое пространство: YUV
Подвыборка цветности: 4:2:0
Битовая глубина: 8 бит
Тип развёртки: Прогрессивная
Бит/(Пиксели*Кадры): 0.129
Размер потока: 1,69 Гбайт (83%)
Библиотека кодирования: x264 core 116 r2074 2641b9e
Настройки программы: cabac=1 / ref=8 / deblock=1:-1:-1 / analyse=0x3:0x133 / me=umh / subme=7 / psy=1 / psy_rd=1.00:0.10 / mixed_ref=1 / me_range=16 / chroma_me=1 / trellis=2 / 8x8dct=1 / cqm=0 / deadzone=21,11 / fast_pskip=0 / chroma_qp_offset=-3 / threads=6 / sliced_threads=0 / nr=0 / decimate=1 / interlaced=0 / bluray_compat=0 / constrained_intra=0 / bframes=3 / b_pyramid=2 / b_adapt=2 / b_bias=0 / direct=3 / weightb=1 / open_gop=0 / weightp=2 / keyint=250 / keyint_min=23 / scenecut=40 / intra_refresh=0 / rc_lookahead=50 / rc=2pass / mbtree=1 / bitrate=2152 / ratetol=1.0 / qcomp=0.60 / qpmin=0 / qpmax=69 / qpstep=4 / cplxblur=20.0 / qblur=0.5 / ip_ratio=1.40 / aq=1:1.00

Аудио
Идентификатор: 2
Формат: AC-3
Формат/Информация: Audio Coding 3
Расширение режима: CM (complete main)
Идентификатор кодека: A_AC3
Продолжительность: 1 ч. 54 м.
Вид битрейта: Постоянный
Битрейт: 384 Кбит/сек
Каналы: 6 каналов
Расположение каналов: Front: L C R, Side: L R, LFE
Частота: 48,0 КГц
Битовая глубина: 16 бит
Метод сжатия: С потерями
Размер потока: 315 Мбайт (15%)








Поделиться:




реклама партнёра


Вернуться к началу
 Профиль Отправить личное сообщение  
 
   Похожие торренты   Автор   Торрент   Размер 
В этой теме нет новых непрочитанных сообщений. Манчестер у моря / Mаnсhеstеr bу thе Sеа (Кеннет Лонерган / Kenneth Lonergan) [2016г., драма, HDRір] DUB

Alfredovich

0 | 0

2.05 ГБ

В этой теме нет новых непрочитанных сообщений. Золушка / Cinderella (Кеннет Брана) [фэнтези, драма, мелодрама, приключения, семейный, 2015] HDRip, Dub [iTunes]

Dracon

1442 | 77

2.05 ГБ

В этой теме нет новых непрочитанных сообщений. Тор 2: Царство тьмы / Thor: The Dark World [Фэнтези, боевик, приключения, 2013] BDRip, Avo [Гаврилов]

salma3

54 | 3

1.47 ГБ

В этой теме нет новых непрочитанных сообщений. Золушка / Cinderella (Кеннет Брана) [фэнтези, драма, мелодрама, приключения, семейный, 2015] BDRip-AVC, Dub+Sub [Лицензия]

Dracon

591 | 18

2.18 ГБ

В этой теме нет новых непрочитанных сообщений. Золушка / Cinderella (Кеннет Брана) [фэнтези, драма, мелодрама, приключения, семейный, 2015] BDRip-AVC, Dub+Sub [Лицензия]

Dracon

613 | 16

1.46 ГБ

В этой теме нет новых непрочитанных сообщений. Золушка / Cinderella (Кеннет Брана) [фэнтези, драма, мелодрама, приключения, семейный, 2015] Blu-Ray 1080p, Dub+Sub [iTunes]

Dracon

126 | 25

37.99 ГБ

В этой теме нет новых непрочитанных сообщений. Золушка / Cinderella (Кеннет Брана) [фэнтези, драма, мелодрама, приключения, семейный, 2015] WEB-DL 1080р, dub [Чистый звук]

Dracon

101 | 31

3.64 ГБ


Начать новую тему Ответить на тему  [ 1 сообщение ] 




Для Мосгорсуда, Роскомнадзора и рекламодателей:: mosgorsud-torrent[собачка]yandex.ru