Торрент файл
скачать торрент магнет ссылка Добавлен: 22 янв 2012, 14:44
Размер: 745.94 МБ
Сидеров: 17
Личеров: 9
Автор

СообщениеДобавлено: 22 янв 2012, 14:44 

Не в сети
Супермодератор
Аватара пользователя
Дата регистрации:
11 апр 2010, 18:10
Спасибо: 5801 / 7
Сообщения: 56779
Индиана Джонс и Королевство xрустального черепа / Indiana Jones and the Kingdom of the Crystal Skull

Перевод: Профессиональный (полное дублирование), cубтитры: отсутствуют
Формат: HDRip, AVI, XviD, MP3
Страна: США
Режиссер: Стивен Спилберг
Жанр: фантастика, боевик, триллер, приключения
Продолжительность: 02:02:32
Год выпуска: 2008
В ролях: Харрисон Форд, Кейт Бланшетт, Карен Аллен, Шайа ЛаБаф, Рэй Уинстон, Джон Херт, Джим Броудбент, Игорь Жижикин, Дмитрий Дьяченко, Илья Волох
Описание: 1957 год, разгар холодной войны. Советские солдаты, возглавляемые агентом Ириной Спалько, похищают Мэрион Рэйвенвуд — давнюю возлюбленную Индианы Джонса, ставя профессора перед выбором: бездействие и смерть Мэрион или помощь советской разведке в поисках легендарного Хрустального черепа в обмен на свободу женщины.

________

Видео: 688x288 (2.37:1) 23.976 fps XviD build 50 714 Kbps avg 0.15 bit/pixe
Аудио: 48 kHz, MPEG Layer 3, 2 ch, ~128.00 kbps avg

General
Complete name: D:\Видео\Кино\indiana_djons_i_korolevstvo_hrustalnogo_cherepa_[tfile.ru].avi
Format: AVI
Format/Info: Audio Video Interleave
File size: 746 MiB
Duration: 2h 2mn
Overall bit rate: 851 Kbps
Writing application: VirtualDubMod 1.5.10.2 (build 2540/release)
Writing library: VirtualDubMod build 2540/release

Video
ID: 0
Format: MPEG-4 Visual
Format profile: Advanced Simple@L5
Format settings, BVOP: 1
Format settings, QPel: No
Format settings, GMC: No warppoints
Format settings, Matrix: Default (MPEG)
Codec ID: XVID
Codec ID/Hint: XviD
Duration: 2h 2mn
Bit rate: 714 Kbps
Width: 688 pixels
Height: 288 pixels
Display aspect ratio: 2.35:1
Frame rate: 23.976 fps
Color space: YUV
Chroma subsampling: 4:2:0
Bit depth: 8 bits
Scan type: Progressive
Compression mode: Lossy
Bits/(Pixel*Frame): 0.150
Stream size: 626 MiB (84%)
Writing library: XviD 1.2.1 (UTC 2008-12-04)

Audio
ID: 1
Format: MPEG Audio
Format version: Version 1
Format profile: Layer 3
Codec ID: 55
Codec ID/Hint: MP3
Duration: 2h 2mn
Bit rate mode: Constant
Bit rate: 128 Kbps
Channel(s): 2 channels
Sampling rate: 48.0 KHz
Compression mode: Lossy
Stream size: 112 MiB (15%)
Alignment: Aligned on interleaves
Interleave, duration: 42 ms (1.00 video frame)
Interleave, preload duration: 504 ms
Writing library: LAME3.97
Encoding settings: -m s -V 4 -q 2 -lowpass 17 -b 128






Поделиться:




реклама партнёра


Вернуться к началу
 Профиль Отправить личное сообщение  
 
   Похожие торренты   Автор   Торрент   Размер 
В этой теме нет новых непрочитанных сообщений. Индиана Джонс и Храм Судьбы / Indiana Jones and the Temple of Doom [Боевик, приключения, 1984] BDRip 720p, Mvo+Sub

salma3

8 | 1

12.1 ГБ

В этой теме нет новых непрочитанных сообщений. Хрустальные черепа / Crystal Skulls [фантастика, приключения, 2014] HDRip, Mvo

salma3

318 | 8

1.37 ГБ

В этой теме нет новых непрочитанных сообщений. Королевство / The Kingdom [Боевик, триллер, 2007] HDRip, Dub

salma3

40 | 9

742.67 МБ

В этой теме нет новых непрочитанных сообщений. Джессика Джонс / Jessica Jones [01х01-09 из 13] (С.Дж. Кларксон, Дэвид Петрарка, Стивен Серджик) [2015, Фантастика, боевик, драма, криминал, WEBRip | Hamsterstudio]

Dracon

56 | 54

4.07 ГБ

В этой теме нет новых непрочитанных сообщений. Джессика Джонс / Jessica Jones [01х01-13 из 13] (С.Дж. Кларксон, Дэвид Петрарка, Стивен Серджик) [2015, фантастика, боевик, драма, криминал, WEBRip | BaibaKo]

Dracon

10 | 7

7.61 ГБ

В этой теме нет новых непрочитанных сообщений. Джессика Джонс / Jessica Jones [01х01-13 из 13] (С.Дж. Кларксон, Дэвид Петрарка, Стивен Серджик) [2015, фантастика, боевик, драма, криминал, WEBRip | NewStudio]

Dracon

146 | 205

8.76 ГБ

В этой теме нет новых непрочитанных сообщений. Джессика Джонс / Marvel's Jessica Jones [01х01-11 из 13] (С.Дж. Кларксон, Дэвид Петрарка, Стивен Серджик) [2015, Фантастика, триллер, драма, WEBRip | IdeaFilm]

Dracon

1 | 5

4.88 ГБ


Начать новую тему Ответить на тему  [ 1 сообщение ] 




Для Мосгорсуда, Роскомнадзора и рекламодателей:: mosgorsud-torrent[собачка]yandex.ru