Торрент файл
скачать торрент магнет ссылка Добавлен: 22 янв 2012, 14:44
Размер: 2.11 ГБ
Сидеров: 192
Личеров: 22
Автор

СообщениеДобавлено: 22 янв 2012, 14:44 

Не в сети
Супермодератор
Аватара пользователя
Дата регистрации:
11 апр 2010, 18:10
Спасибо: 5799 / 7
Сообщения: 56779
Хранители / Watchmen



Перевод: Профессиональный (полное дублирование),субтитры: отсутствуют
Формат: HDRip-AVC, MKV, H.264, AC3
Страна: США
Жанр: фантастика, боевик, триллер, детектив
Продолжительность: 03:35:00
Режиссер: Зак Снайдер/Zack Snyder
Год выпуска: 2009

В ролях: Малин Акерман, Билли Крудап, Мэттью Гуд, Джеки Эрл Хейли, Джеффри Дин Морган, Патрик Уилсон, Карла Гуджино, Мэтт Фрюэр, Стивен МакХэтти, Лаура Меннелл

Описание:Действие картины разворачивается в параллельной реальности, в Америке 1985 года. В этом мире супергерои стали частью повседневной жизни общества, а Часы Судного Дня, застыв в пяти минутах от полуночи, отсчитывают время до столкновения ведущих мировых держав. После убийства одного из своих прежних коллег Роршах - супергерой, никогда не снимающий маски, - полон решимости свершить суд Линча. Он начинает расследование заговора, призванного уничтожить или дискредитировать всех супергероев прошлого и настоящего. Он собирает своих соратников - отставной легион борцов с преступностью, но лишь один из них обладает подлинной силой. Постепенно Роршах осознает пугающий масштаб заговора, связанного с общим прошлым героев и сулящего катастрофические последствия в будущем. Они хранят наш покой, но кто охранит нас от Хранителей?

________

Видео: 1248 x 540 (2:40:1), 23,976 кадр/сек, AVC (х264), High@L4.0, ~ 1014 Kbps,0.065 bit/pixel
Аудио: 48 kHz, AC3 Dolby Digital, 3/2 (L,C,R,l,r) + LFE ch, ~384 kbps


Автор РИПа:ddimmon22
Общее
Уникальный идентификатор: 201510534335105168904455209827231850035 (0x979984686F40357EAD55D476658BDE33)
Полное имя: K:\РИПЫ\watchmen_[tfile.ru].mkv
Формат: Matroska
Версия формата: Version 2
Размер файла: 2,11 Гбайт
Продолжительность: 3 ч. 35 м.
Общий поток: 1399 Кбит/сек
Дата кодирования: UTC 2011-09-12 11:42:11
Программа кодирования: mkvmerge v4.9.1 ('Ich will') сборка от Aug 10 2011 09:31:20
Библиотека кодирования: libebml v1.2.1 + libmatroska v1.2.0

Видео
Идентификатор: 1
Формат: AVC
Формат/Информация: Advanced Video Codec
Профиль формата: High@L4.0
Параметр CABAC формата: Да
Параметр ReFrames формата: 8 кадров
Идентификатор кодека: V_MPEG4/ISO/AVC
Продолжительность: 3 ч. 35 м.
Битрейт: 1014 Кбит/сек
Ширина: 1248 пикс.
Высота: 520 пикс.
Соотношение сторон: 2,40:1
Частота кадров: 23,976 кадр/сек
Цветовое пространство: YUV
Подвыборка цветности: 4:2:0
Битовая глубина: 8 бит
Тип развёртки: Прогрессивная
Бит/(Пиксели*Кадры): 0.065
Размер потока: 1,49 Гбайт (71%)
Библиотека кодирования: x264 core 116 r2074 2641b9e
Настройки программы: cabac=1 / ref=8 / deblock=1:-1:-1 / analyse=0x3:0x133 / me=umh / subme=7 / psy=1 / psy_rd=1.00:0.10 / mixed_ref=1 / me_range=16 / chroma_me=1 / trellis=2 / 8x8dct=1 / cqm=0 / deadzone=21,11 / fast_pskip=0 / chroma_qp_offset=-3 / threads=6 / sliced_threads=0 / nr=0 / decimate=1 / interlaced=0 / bluray_compat=0 / constrained_intra=0 / bframes=3 / b_pyramid=2 / b_adapt=2 / b_bias=0 / direct=3 / weightb=1 / open_gop=0 / weightp=2 / keyint=250 / keyint_min=23 / scenecut=40 / intra_refresh=0 / rc_lookahead=50 / rc=2pass / mbtree=1 / bitrate=1014 / ratetol=1.0 / qcomp=0.60 / qpmin=0 / qpmax=69 / qpstep=4 / cplxblur=20.0 / qblur=0.5 / ip_ratio=1.40 / aq=1:1.00

Аудио
Идентификатор: 2
Формат: AC-3
Формат/Информация: Audio Coding 3
Расширение режима: CM (complete main)
Идентификатор кодека: A_AC3
Продолжительность: 3 ч. 35 м.
Вид битрейта: Постоянный
Битрейт: 384 Кбит/сек
Каналы: 6 каналов
Расположение каналов: Front: L C R, Side: L R, LFE
Частота: 48,0 КГц
Битовая глубина: 16 бит
Метод сжатия: С потерями
Размер потока: 592 Мбайт (27%)









Поделиться:




реклама партнёра


Вернуться к началу
 Профиль Отправить личное сообщение  
 
   Похожие торренты   Автор   Торрент   Размер 
В этой теме нет новых непрочитанных сообщений. Watchmen – Watchmen [2006, Hard Rock, MP3]

PriZraK

0 | 1

120.6 МБ

В этой теме нет новых непрочитанных сообщений. Бегущий в лабиринте / The Maze Runner [Фантастика, Боевик, Триллер, Детектив, 2014] HDRip, Dub [iTunes]

Dracon

49 | 2

2.05 ГБ

В этой теме нет новых непрочитанных сообщений. Бегущий в лабиринте / The Maze Runner [Фантастика, Боевик, Триллер, Детектив, 2014] HDRip, Dub [iTunes]

Dracon

20 | 2

1.46 ГБ

В этой теме нет новых непрочитанных сообщений. Девять / 9 [мультфильм, фантастика, фэнтези, боевик, триллер, драма, детектив, приключения, 2009] BDRip 720p, Dub+Avo+Sub

salma3

167 | 9

3.1 ГБ

В этой теме нет новых непрочитанных сообщений. Молодой детектив Ди: Восстание морского дракона / Young Detective Dee: Rise of the Sea Dragon [фентези, боевик, детектив, триллер, 2013] HDRip, Dvo

salma3

720 | 26

1.67 ГБ

В этой теме нет новых непрочитанных сообщений. Наркополис / Narcopolis [фантастика, триллер, детектив, 2015] HDRip, Avo

salma3

36 | 3

1.17 ГБ

В этой теме нет новых непрочитанных сообщений. Превосходство / Transcendence [фантастика, триллер, драма, детектив, 2014] HDRip, Dub

Dracon

3106 | 64

2.05 ГБ


Начать новую тему Ответить на тему  [ 1 сообщение ] 




Для Мосгорсуда, Роскомнадзора и рекламодателей:: mosgorsud-torrent[собачка]yandex.ru