Торрент файл
скачать торрент магнет ссылка Добавлен: 22 янв 2012, 14:44
Размер: 2.16 ГБ
Сидеров: 199
Личеров: 14
Автор

СообщениеДобавлено: 22 янв 2012, 14:44 

Не в сети
Супермодератор
Аватара пользователя
Дата регистрации:
11 апр 2010, 18:10
Спасибо: 5801 / 7
Сообщения: 56779
Искусственный разум / Artificial Intelligence: AI

Перевод: Профессиональный (полное дублирование), cубтитры: Русские, Английские (полные, отключаемые)
Формат: HDRip, MKV, H.264, AC3
Страна: США
Режиссер: Стивен Спилберг
Жанр: фантастика, драма, приключения
Продолжительность: 02:25:51
Год выпуска: 2001
В ролях: Хэйли Джоэл Осмент, Джуд Лоу, Фрэнсис О’Коннор, Сэм Робардс, Джейк Томас, Уильям Хёрт, Кен Люн, Кларк Грегг, Кевин Суссман, Том Гэллоп
Описание: В будущем мире вырвавшегося из-под контроля глобального потепления и пугающих достижений науки, смертные живут бок о бок с удивительными и сложными роботами. Но когда продвинутый прототип робота-ребенка по имени Дэвид программируется на проявление бескорыстной любви, члены его человеческой семьи оказываются неготовыми к последствиям такого чувства.
Неожиданно Дэвид оказывается один в странном и опасном мире. С помощью уличного робота Дэвид пускается в поиски загадки своего собственного происхождения.


Видео: 1280x720 (16:9), 23,976 fps, MPEG4 AVC (х264), High@L4.1 ~1736kbps avg, 0,079 bit/pixe
Аудио: 48 kHz, AC-3, 6 ch, ~384.00 kbps avg


Автор РИПа:

- Фильм был задуман Стэнли Кубриком в далеком 1969 году. Тридцать лет Кубрик вынашивал эту идею, а к началу создания картины ушел из жизни, но его друг, Стивен Спилберг, в память о великом режиссере воплотил его намерения в жизнь.
- Фильм снят по мотивам рассказа Брайна Олдисса «Суперроботы живут все лето» («Supertoys Last All Summer Long»).
- К написанию сценария был привлечен сначала сам автор рассказа, Брайан Олдисс, а затем Кубрик обратился за помощью к Артуру Кларку, но и из этого творческого тандема ничего не вышло.
- «Искуственный разум» выиграл в пяти номинациях кинопремии «Сатурн», включая номинацию «Лучший научно-фантастический фильм», а также номинировался на «Оскар» в 2002 году за «Лучшие визуальные эффекты» и «Лучший оригинальный саундтрек».
- Журнал Rolling Stone назвал картину Стивена Спилберга «подлинной работой настоящего кинематографиста».

Общее
Уникальный идентификатор : 182898688442918372165192785841539825476 (0x8999018EDC6E9522AB67484DDCA8BF44)
Полное имя : f:\Downloads\artificial_intelligence_ai_[tfile.ru].mkv
Формат : Matroska
Размер файла : 2,16 Гбайт
Продолжительность : 2 ч. 25 м.
Общий поток : 2122 Кбит/сек
Дата кодирования : UTC 2011-09-12 05:52:50
Программа кодирования : mkvmerge v4.6.0 ('Still Crazy After All These Years') сборка от Mar 10 2011 02:50:32
Библиотека кодирования : libebml v1.2.0 + libmatroska v1.1.0

Видео
Идентификатор : 1
Формат : AVC
Формат/Информация : Advanced Video Codec
Профиль формата : High@L4.1
Параметр CABAC формата : Да
Параметр ReFrames формата : 3 кадра
Режим смешивания : Header stripping
Идентификатор кодека : V_MPEG4/ISO/AVC
Продолжительность : 2 ч. 25 м.
Битрейт : 1736 Кбит/сек
Ширина : 1280 пикс.
Высота : 720 пикс.
Соотношение сторон : 16:9
Режим частоты кадров : Переменный
Частота кадров : 23,976 кадр/сек
Цветовое пространство : YUV
Подвыборка цветности : 4:2:0
Битовая глубина : 8 бит
Тип развёртки : Прогрессивная
Бит/(Пиксели*Кадры) : 0.079
Размер потока : 1,73 Гбайт (80%)
Библиотека кодирования : x264 core 116 r2019M 9cc407d
Настройки программы : cabac=1 / ref=3 / deblock=1:0:0 / analyse=0x3:0x133 / me=hex / subme=7 / psy=1 / psy_rd=1.00:0.20 / mixed_ref=1 / me_range=16 / chroma_me=1 / trellis=1 / 8x8dct=1 / cqm=0 / deadzone=21,11 / fast_pskip=1 / chroma_qp_offset=-3 / threads=8 / sliced_threads=0 / nr=0 / decimate=1 / interlaced=0 / bluray_compat=0 / constrained_intra=0 / bframes=3 / b_pyramid=1 / b_adapt=2 / b_bias=0 / direct=3 / weightb=1 / open_gop=0 / weightp=2 / keyint=230 / keyint_min=23 / scenecut=40 / intra_refresh=0 / rc=2pass / mbtree=0 / bitrate=1736 / ratetol=1.0 / qcomp=0.60 / qpmin=10 / qpmax=51 / qpstep=4 / cplxblur=20.0 / qblur=0.5 / ip_ratio=1.40 / pb_ratio=1.30 / aq=1:1.00
Язык : English

Аудио
Идентификатор : 2
Формат : AC-3
Формат/Информация : Audio Coding 3
Расширение режима : CM (complete main)
Режим смешивания : Header stripping
Идентификатор кодека : A_AC3
Продолжительность : 2 ч. 25 м.
Вид битрейта : Постоянный
Битрейт : 384 Кбит/сек
Каналы : 6 каналов
Расположение каналов : Front: L C R, Side: L R, LFE
Частота : 48,0 КГц
Битовая глубина : 16 бит
Метод сжатия : С потерями
Размер потока : 401 Мбайт (18%)
Заголовок : DUB
Язык : Russian

Текст #1
Идентификатор : 3
Формат : UTF-8
Идентификатор кодека : S_TEXT/UTF8
Идентификатор кодека/Информация : UTF-8 Plain Text
Язык : Russian

Текст #2
Идентификатор : 4
Формат : UTF-8
Идентификатор кодека : S_TEXT/UTF8
Идентификатор кодека/Информация : UTF-8 Plain Text
Язык : English

Текст #3
Идентификатор : 5
Формат : UTF-8
Идентификатор кодека : S_TEXT/UTF8
Идентификатор кодека/Информация : UTF-8 Plain Text
Заголовок : SDH
Язык : English

Меню
00:00:00.000 : en:Artificial Intelligence
00:07:09.971 : en:His Life is Merely Pending
00:10:12.654 : en:A Mecha Child
00:15:23.131 : en:Hide and Go Seek
00:18:31.319 : en:Laughter
00:21:42.301 : en:Imprinting Protocol
00:24:21.418 : en:Teddy, a Super-Toy
00:28:41.637 : en:Martin Comes Home
00:30:21.737 : en:The New Super-Toy
00:33:56.159 : en:A Classic Story
00:35:48.980 : en:Competition For Affection
00:39:57.604 : en:Mechas and Orgas
00:45:27.308 : en:Abandoned
00:53:46.432 : en:Gigolo Joe
00:57:45.837 : en:Unregistered Mecha Roundup
01:05:52.949 : en:Flesh Fair: A Celebration of Life
01:09:14.442 : en:"I'm a Boy"
01:17:48.581 : en:Journey Towards the Moon
01:22:28.902 : en:Rouge City
01:25:37.549 : enr. Know
01:31:03.083 : en:"They Hate Us"
01:33:05.413 : en:Escape From Rouge City
01:35:07.285 : en:The City at the End of the World
01:37:55.745 : en:Special and Unique
01:43:43.634 : en:Brothers and Sisters
01:46:51.822 : enavid's Leap
01:49:21.305 : en:A Plea to the Blue Fairy
01:55:41.268 : en:Memories
02:01:33.912 : en:Back Home
02:07:08.204 : en:A Question of Happiness
02:11:42.186 : en:A Perfect Day
02:18:38.727 : en:End Credits
















Поделиться:




реклама партнёра


Вернуться к началу
 Профиль Отправить личное сообщение  
 
   Похожие торренты   Автор   Торрент   Размер 
В этой теме нет новых непрочитанных сообщений. Большой и добрый великан / The BFG (Стивен Спилберг) [2016, Фэнтези, экранизация, приключения, семейный, HDRip-AVC | Line]

marya111

571 | 24

1.45 ГБ

В этой теме нет новых непрочитанных сообщений. Большой и добрый великан / The BFG (Стивен Спилберг) [2016, Фэнтези, экранизация, приключения, семейный, HDRip | Line] Dub

marya111

642 | 54

746.05 МБ

В этой теме нет новых непрочитанных сообщений. Шпионский мост / Bridge of Spies (Стивен Спилберг) [2015, триллер, драма, биография, BDRip-AVC | Чистый звук] Dub

PriZraK

5246 | 204

2.87 ГБ

В этой теме нет новых непрочитанных сообщений. Тайны Смолвиля / Smallville [S01-10] [фантастика, драма, мелодрама, приключения, 2001-2011] WEB-DLRip, DVDRip, HDRip, Mvo [СТС]

salma3

83 | 206

79.92 ГБ

В этой теме нет новых непрочитанных сообщений. Недооформлен Искусственный интеллект. Доступ неограничен / I.T. (Триллер, драма, криминал, детектив, 2016) HDRip от MegaPeer | iTunes Данный торрент является блокированным, причина: недооформленный торрент

marya111

0 | 0

1.46 ГБ

В этой теме нет новых непрочитанных сообщений. Свалка / Trash (Стивен Долдри) [Триллер, драма, криминал, приключения, 2014] HDRip, Dub [Лицензия]

Dracon

7 | 3

2.05 ГБ

В этой теме нет новых непрочитанных сообщений. Свалка / Trash (Стивен Долдри / Stephen Daldry) [2014г., Великобритания, триллер, драма, криминал, приключения, HDRip] Dub

Alfredovich

620 | 6

1.37 ГБ


Начать новую тему Ответить на тему  [ 1 сообщение ] 




Для Мосгорсуда, Роскомнадзора и рекламодателей:: mosgorsud-torrent[собачка]yandex.ru