Торрент файл
скачать торрент магнет ссылка Добавлен: 22 янв 2012, 14:43
Размер: 2.18 ГБ
Сидеров: 34
Личеров: 10
Автор

СообщениеДобавлено: 22 янв 2012, 14:43 

Не в сети
Супермодератор
Аватара пользователя
Дата регистрации:
11 апр 2010, 18:10
Спасибо: 5801 / 7
Сообщения: 56779
Короткое замыкание / Short Circuit

Перевод: Профессиональный (полное дублирование), cубтитры: Русские, Английские (полные, отключаемые)
Формат: HDRip, MKV, H.264, AC3
Страна: США
Режиссер: Джон Бэдэм
Жанр: фантастика, комедия, семейный
Продолжительность: 01:38:34
Год выпуска: 1986
В ролях: Элли Шиди, Стив Гуттенберг, Фишер Стивенс, Остин Пендлтон, Дж. У. Бейли, Брайан МакНамара, Тим Блэйни, Марвин Дж. МакИнтайр, Джон Гарбер, Пенни Сантон
Описание: Разряд молнии попадает в робота под номером 5, и он оживает наподобие создания Франкенштейна. Вся штука в том, что его создатель и те, кто замыслил использвать робота в военных целях, не подозревали даже, какой могучий заряд человеколюбия и добра заложен в этой, казалось бы, безмозглой и бессердечной железяке.

Видео: 1280x532 (2,40:1), 23,976 fps, MPEG4 AVC (х264), High@L4.1 ~2648kbps avg, 0.162 bit/pixe
Аудио#1:Русский: 48 kHz,AC-3, 2 ch, ~192.00 kbps avg [Профессиональный (полное дублирование)]
Аудио#2:Русский: 48 kHz,AC-3, 6 ch, ~320.00 kbps avg [Профессиональный (многоголосый, закадровый)]


Автор РИПа:

- Некоторые элементы сюжета позаимствованы из рассказа Айзека Азимова «Robot AL-76 Goes Astray» (1941).
- Во время съёмок «Джонни 5» управлялся с пульта дистанционного управления. А управляющие техники разговаривали за робота в кадре, чтобы актёрам было легче представить одушевлённого робота.
- Робот не мог двигаться достаточно быстро, поэтому плёнку с его действиями при монтаже приходилось воспроизводить с ускорением.
- Робот «Джонни 5» был самой высокорасходной статьёй бюджета фильма. Остальные затраты были не так велики.
- Когда Стефани даёт экспресс-интервью, в роли оператора можно увидеть режиссёра фильма Джона Бэдэма (т. н. появление камео).
- Самой известной фразой из фильма стала фраза: «Жизнь это не дисфункция» (англ. «Life is not a malfunction»).
- По мотивам фильма была создана видеоигра.

Общее
Уникальный идентификатор : 242440537851180395552296743040676079253 (0xB66459626CC0E43693719A2545912695)
Полное имя : f:\Downloads\short_circuit_[tfile.ru].mkv
Формат : Matroska
Размер файла : 2,18 Гбайт
Продолжительность : 1 ч. 38 м.
Общий поток : 3160 Кбит/сек
Название фильма : Rip by PunisheR [nolimits-team.ru]
Дата кодирования : UTC 2011-09-14 19:50:04
Программа кодирования : mkvmerge v4.6.0 ('Still Crazy After All These Years') сборка от Mar 10 2011 02:50:32
Библиотека кодирования : libebml v1.2.0 + libmatroska v1.1.0

Видео
Идентификатор : 1
Формат : AVC
Формат/Информация : Advanced Video Codec
Профиль формата : High@L4.1
Параметр CABAC формата : Да
Параметр ReFrames формата : 3 кадра
Режим смешивания : Header stripping
Идентификатор кодека : V_MPEG4/ISO/AVC
Продолжительность : 1 ч. 38 м.
Битрейт : 2648 Кбит/сек
Ширина : 1280 пикс.
Высота : 532 пикс.
Соотношение сторон : 2,40:1
Режим частоты кадров : Переменный
Частота кадров : 23,976 кадр/сек
Цветовое пространство : YUV
Подвыборка цветности : 4:2:0
Битовая глубина : 8 бит
Тип развёртки : Прогрессивная
Бит/(Пиксели*Кадры) : 0.162
Размер потока : 1,78 Гбайт (82%)
Библиотека кодирования : x264 core 116 r2019M 9cc407d
Настройки программы : cabac=1 / ref=3 / deblock=1:0:0 / analyse=0x3:0x133 / me=hex / subme=7 / psy=1 / psy_rd=1.00:0.20 / mixed_ref=1 / me_range=16 / chroma_me=1 / trellis=1 / 8x8dct=1 / cqm=0 / deadzone=21,11 / fast_pskip=1 / chroma_qp_offset=-3 / threads=8 / sliced_threads=0 / nr=0 / decimate=1 / interlaced=0 / bluray_compat=0 / constrained_intra=0 / bframes=3 / b_pyramid=1 / b_adapt=2 / b_bias=0 / direct=3 / weightb=1 / open_gop=0 / weightp=2 / keyint=230 / keyint_min=23 / scenecut=40 / intra_refresh=0 / rc=2pass / mbtree=0 / bitrate=2648 / ratetol=1.0 / qcomp=0.60 / qpmin=10 / qpmax=51 / qpstep=4 / cplxblur=20.0 / qblur=0.5 / ip_ratio=1.40 / pb_ratio=1.30 / aq=1:1.00
Язык : English

Аудио #1
Идентификатор : 2
Формат : AC-3
Формат/Информация : Audio Coding 3
Расширение режима : CM (complete main)
Режим смешивания : Header stripping
Идентификатор кодека : A_AC3
Продолжительность : 1 ч. 38 м.
Вид битрейта : Постоянный
Битрейт : 192 Кбит/сек
Каналы : 2 канала
Расположение каналов : Front: L R
Частота : 48,0 КГц
Битовая глубина : 16 бит
Метод сжатия : С потерями
Размер потока : 135 Мбайт (6%)
Заголовок : DUB
Язык : Russian

Аудио #2
Идентификатор : 3
Формат : AC-3
Формат/Информация : Audio Coding 3
Расширение режима : CM (complete main)
Режим смешивания : Header stripping
Идентификатор кодека : A_AC3
Продолжительность : 1 ч. 38 м.
Вид битрейта : Постоянный
Битрейт : 320 Кбит/сек
Каналы : 6 каналов
Расположение каналов : Front: L C R, Side: L R, LFE
Частота : 48,0 КГц
Битовая глубина : 16 бит
Метод сжатия : С потерями
Размер потока : 226 Мбайт (10%)
Заголовок : MVO
Язык : Russian

Текст
Идентификатор : 4
Формат : UTF-8
Идентификатор кодека : S_TEXT/UTF8
Идентификатор кодека/Информация : UTF-8 Plain Text
Заголовок : Russian
Язык : Russian














Поделиться:




реклама партнёра


Вернуться к началу
 Профиль Отправить личное сообщение  
 
   Похожие торренты   Автор   Торрент   Размер 
В этой теме нет новых непрочитанных сообщений. Короткое время / Short Time [Комедия, Драма, Криминал, 1990] DVDRip, Mvo

salma3

29 | 5

1.46 ГБ

В этой теме нет новых непрочитанных сообщений. 12 обезьян / 12 Monkeys [S01] (Дэвид Гроссман, Майкл Ваксман, Джон Бэдэм) [фантастика, триллер, драма, 2015] WEB-DL 1080p, Mvo [BaibaKo]

Марик

39 | 45

23.02 ГБ

В этой теме нет новых непрочитанных сообщений. Замкнутая цепь / Closed Circuit (Джон Краули) [триллер, драма, криминал, детектив, 2013] HDRip, Mvo

Dracon

426 | 11

1.46 ГБ

В этой теме нет новых непрочитанных сообщений. 12 обезьян / 12 Monkeys [01x01-13 из 13] (Дэвид Гроссман, Майкл Ваксман, Джон Бэдэм) [2015, фантастика, триллер, драма, детектив, приключения, WEB-DL 720p | LostFilm]

Nickolas3435

13 | 14

16.69 ГБ

В этой теме нет новых непрочитанных сообщений. 12 обезьян / 12 Monkeys [01x01-13 из 13] (Дэвид Гроссман, Майкл Ваксман, Джон Бэдэм) [2015, фантастика, триллер, драма, детектив, приключения, WEB-DLRip | LostFilm]

Nickolas3435

103 | 32

5.42 ГБ

В этой теме нет новых непрочитанных сообщений. 12 обезьян / 12 Monkeys [01x01-05 из 13] (Дэвид Гроссман, Майкл Ваксман, Джон Бэдэм) [2015, фантастика, триллер, драма, детектив, приключения, WEB-DLRip | LostFilm]

Nickolas3435

12 | 9

2.18 ГБ

В этой теме нет новых непрочитанных сообщений. 12 обезьян / 12 Monkeys [01x01-13 из 13] (Дэвид Гроссман, Майкл Ваксман, Джон Бэдэм) [2015, фантастика, триллер, драма, детектив, приключения, WEB-DL 720p | BaibaKo]

Nickolas3435

2 | 15

18.79 ГБ


Начать новую тему Ответить на тему  [ 1 сообщение ] 




Для Мосгорсуда, Роскомнадзора и рекламодателей:: mosgorsud-torrent[собачка]yandex.ru