Торрент файл
скачать торрент магнет ссылка Добавлен: 22 янв 2012, 14:42
Размер: 2.1 ГБ
Сидеров: 28
Личеров: 9
Автор

СообщениеДобавлено: 22 янв 2012, 14:42 

Не в сети
Супермодератор
Аватара пользователя
Дата регистрации:
11 апр 2010, 18:10
Спасибо: 5801 / 7
Сообщения: 56779
Леди-ястреб / Ladyhawke



Перевод: Профессиональный (многоголосый, закадровый),субтитры: отсутствуют
Формат: HDRip-AVC, MKV, H.264, AC3
Страна: США
Жанр: фэнтези, драма, мелодрама, комедия, приключения
Продолжительность: 02:10:00
Режиссер: Ричард Доннер / Richard Donner
Год выпуска: 1985

В ролях: Мэттью Бродерик, Рутгер Хауэр, Мишель Пфайффер, Лео МакКерн, Джон Вуд, Кен Хатчинсон, Альфред Молина, Джанкарло Прете, Лорис Лодди, Алессандро Серра

Описание:Фильм основан на средневековой европейской легенде о доблестном рыцаре и ослепительной красавице. Епископ, злой колдун накладывает на них проклятье: по ночам рыцарь превращается в волка, а девушка — в ястреба днем.

Слуги Епископа преследуют их уже два года, но удача пока улыбается нашим героям. С помощью маленького воришки Филиппа они надеются вернуться в город, где под неусыпной охраной живет их враг. Им нужно уничтожить злобного колдуна и снять с себя черное проклятье.


________

Видео: 1248x520 (2:40:1),23,976 кадр/сек, AVC (х264), High@L4.0, ~2102Kbps, 0.135 bit/pixel
Аудио: 48 kHz, AC3 Dolby Digital, 3/2 (L,C,R,l,r) + LFE ch, ~384 kbps


Автор РИПа:ddimmon22
Общее
Уникальный идентификатор: 226924360556926552861083937774582848977 (0xAAB80AC7C52A9E4A8EC4BF4E57935DD1)
Полное имя: K:\РИПЫ\ladyhawke_[tfile.ru].mkv
Формат: Matroska
Версия формата: Version 2
Размер файла: 2,10 Гбайт
Продолжительность: 2 ч. 1 м.
Общий поток: 2486 Кбит/сек
Дата кодирования: UTC 2011-09-17 13:21:55
Программа кодирования: mkvmerge v4.9.1 ('Ich will') сборка от Aug 10 2011 09:31:20
Библиотека кодирования: libebml v1.2.1 + libmatroska v1.2.0

Видео
Идентификатор: 1
Формат: AVC
Формат/Информация: Advanced Video Codec
Профиль формата: High@L4.0
Параметр CABAC формата: Да
Параметр ReFrames формата: 8 кадров
Идентификатор кодека: V_MPEG4/ISO/AVC
Продолжительность: 2 ч. 1 м.
Битрейт: 2102 Кбит/сек
Ширина: 1248 пикс.
Высота: 520 пикс.
Соотношение сторон: 2,40:1
Частота кадров: 23,976 кадр/сек
Цветовое пространство: YUV
Подвыборка цветности: 4:2:0
Битовая глубина: 8 бит
Тип развёртки: Прогрессивная
Бит/(Пиксели*Кадры): 0.135
Размер потока: 1,74 Гбайт (83%)
Библиотека кодирования: x264 core 116 r2074 2641b9e
Настройки программы: cabac=1 / ref=8 / deblock=1:-1:-1 / analyse=0x3:0x133 / me=umh / subme=7 / psy=1 / psy_rd=1.00:0.10 / mixed_ref=1 / me_range=16 / chroma_me=1 / trellis=2 / 8x8dct=1 / cqm=0 / deadzone=21,11 / fast_pskip=0 / chroma_qp_offset=-3 / threads=6 / sliced_threads=0 / nr=0 / decimate=1 / interlaced=0 / bluray_compat=0 / constrained_intra=0 / bframes=3 / b_pyramid=2 / b_adapt=2 / b_bias=0 / direct=3 / weightb=1 / open_gop=0 / weightp=2 / keyint=250 / keyint_min=23 / scenecut=40 / intra_refresh=0 / rc_lookahead=50 / rc=2pass / mbtree=1 / bitrate=2102 / ratetol=1.0 / qcomp=0.60 / qpmin=0 / qpmax=69 / qpstep=4 / cplxblur=20.0 / qblur=0.5 / ip_ratio=1.40 / aq=1:1.00

Аудио
Идентификатор: 2
Формат: AC-3
Формат/Информация: Audio Coding 3
Расширение режима: CM (complete main)
Идентификатор кодека: A_AC3
Продолжительность: 2 ч. 1 м.
Вид битрейта: Постоянный
Битрейт: 384 Кбит/сек
Каналы: 6 каналов
Расположение каналов: Front: L C R, Side: L R, LFE
Частота: 48,0 КГц
Битовая глубина: 16 бит
Метод сжатия: С потерями
Размер потока: 332 Мбайт (15%)










Поделиться:




реклама партнёра


Вернуться к началу
 Профиль Отправить личное сообщение  
 
   Похожие торренты   Автор   Торрент   Размер 
В этой теме нет новых непрочитанных сообщений. Леди-ястреб / Ladyhawke [фэнтези, драма, комедия, приключения, 1985] BDRip 720p, Mvo+Avo

salma3

52 | 15

7.95 ГБ

В этой теме нет новых непрочитанных сообщений. Леди-ястреб / Ladyhawke [Фэнтези, мелодрама, приключения, 1985] BDRip 1080p, Mvo+Avo

salma3

27 | 5

9.58 ГБ

В этой теме нет новых непрочитанных сообщений. Ричард: Львиное Сердце / Richard: The Lionheart [фэнтези, боевик, приключения, 2013] BDRip 720p, Mvo+Avo

salma3

98 | 9

4.94 ГБ

В этой теме нет новых непрочитанных сообщений. Ричард: Львиное Сердце / Richard: The Lionheart [фэнтези, боевик, приключения, 2013] BDRip 1080p, Avo

salma3

25 | 2

7.09 ГБ

В этой теме нет новых непрочитанных сообщений. Леди Джейн / Lady Jane [драма, мелодрама, биография, история, 1985] DVDRip, Dub

salma3

63 | 4

1.46 ГБ

В этой теме нет новых непрочитанных сообщений. Очаровашка (1-3 серии из 3) / Dazzle (Ричард А. Колла / Richard A. Colla) [1995г., драма, мелодрама, DVDRip] AVO

Alfredovich

2 | 2

2.45 ГБ

В этой теме нет новых непрочитанных сообщений. Ричард Львиное Сердце: Восстание / Richard the Lionheart: Rebellion (Стефано Милла) [Боевик, драма, приключения, история, 2015] WEBRip, dvo

Dracon

142 | 11

1.37 ГБ


Начать новую тему Ответить на тему  [ 1 сообщение ] 




Для Мосгорсуда, Роскомнадзора и рекламодателей:: mosgorsud-torrent[собачка]yandex.ru