Торрент файл
скачать торрент магнет ссылка Добавлен: 22 янв 2012, 14:41
Размер: 2 ГБ
Сидеров: 34
Личеров: 8
Автор

СообщениеДобавлено: 22 янв 2012, 14:41 

Не в сети
Супермодератор
Аватара пользователя
Дата регистрации:
11 апр 2010, 18:10
Спасибо: 5962 / 7
Сообщения: 56765
Бунраку / Bunraku

Перевод: Профессиональный (многоголосый, закадровый), cубтитры: отсутствуют
Формат: DVDRip, AVI, XviD, AC3
Страна: США
Режиссер: Гай Моше
Жанр: фэнтези, боевик, драма
Продолжительность: 01:59:17
Год выпуска: 2011

В ролях: Джош Хартнетт, Вуди Харрельсон, Гакт Камуи, Рон Перлман, Дэми Мур, Кевин МакКидд, Сюн Сугата, Хорди Молья, Марк Паттон, Фернандо Чиен, Флориан Киприан, Нейл ДеМонти, Холлэнд Диаз, Мариус Флориан, Разван Георгиу, Йошио Иидзука, Марк Иванир, Аарон Тони, Самули Ваурамо, Крис Брюстер

Описание: Таинственный скиталец и молодой японский воин прибывают в терроризируемый преступниками город. У каждого своя миссия, но вскоре они объединяют силы, чтобы свергнуть коррумпированное господство.



Видео: 720x304 (2.35:1), 25 fps, XviD MPEG-4 ~1805 kbps avg, 0.33 bit/pixel
Аудио#1:Английский: 48 kHz, AC3 Dolby Digital, 6 ch, ~448.00 kbps avg [Оригинал]
Аудио#2:Русский: 48 kHz, MPEG Layer 3, 2 ch, ~128.00 kbps avg [Профессиональный (многоголосый, закадровый)]


Полное имя : C:\Documents and Settings\Юра\Мои документы\Downloads\bunraku_[tfile.ru].avi
Формат : AVI
Формат/Информация : Audio Video Interleave
Профиль формата : OpenDML
Настройки формата : rec
Размер файла : 2,00 Гбайт
Продолжительность : 1 ч. 59 м.
Общий поток : 2388 Кбит/сек
Программа кодирования : AVI-Mux GUI 1.17.8, Aug 30 2008 12:36:58

Видео
Идентификатор : 0
Формат : MPEG-4 Visual
Профиль формата : Advanced Simple@L5
Параметр BVOP формата : 3
Параметр QPel формата : Да
Параметр GMC формата : Без точки перехода
Параметр матрицы формата : Default (H.263)
Режим смешивания : Сжатый битовый поток
Идентификатор кодека : XVID
Идентификатор кодека/Подсказка : XviD
Продолжительность : 1 ч. 59 м.
Битрейт : 1801 Кбит/сек
Ширина : 720 пикс.
Высота : 304 пикс.
Соотношение сторон : 2,35:1
Частота кадров : 25,000 кадр/сек
Цветовое пространство : YUV
Подвыборка цветности : 4:2:0
Битовая глубина : 8 бит
Тип развёртки : Прогрессивная
Метод сжатия : С потерями
Бит/(Пиксели*Кадры) : 0.329
Размер потока : 1,51 Гбайт (75%)
Библиотека кодирования : XviD 1.2.1 (UTC 2008-12-04)

Аудио #1
Идентификатор : 1
Формат : AC-3
Формат/Информация : Audio Coding 3
Расширение режима : CM (complete main)
Идентификатор кодека : 2000
Продолжительность : 1 ч. 59 м.
Вид битрейта : Постоянный
Битрейт : 448 Кбит/сек
Каналы : 6 каналов
Расположение каналов : Front: L C R, Side: L R, LFE
Частота : 48,0 КГц
Битовая глубина : 16 бит
Метод сжатия : С потерями
Размер потока : 384 Мбайт (19%)
Выравнивание : Соединение по промежуткам
Продолжительность промежутка : 64 мс. (1,60 видеокадра)
Время предзагрузки промежутка : 192 ms

Аудио #2
Идентификатор : 2
Формат : MPEG Audio
Версия формата : Version 1
Профиль формата : Layer 3
Идентификатор кодека : 55
Идентификатор кодека/Подсказка : MP3
Продолжительность : 1 ч. 59 м.
Вид битрейта : Постоянный
Битрейт : 128 Кбит/сек
Каналы : 2 канала
Частота : 48,0 КГц
Метод сжатия : С потерями
Размер потока : 109 Мбайт (5%)
Выравнивание : Соединение по промежуткам
Продолжительность промежутка : 24 мс. (0,60 видеокадр)
Время предзагрузки промежутка : 192 ms
Библиотека кодирования : LAME3.98r
Настройки программы : -m s -V 4 -q 2 -lowpass 17 -b 128










Поделиться:




реклама партнёра


Вернуться к началу
 Профиль Отправить личное сообщение  
 
   Похожие торренты   Автор   Торрент   Размер 
В этой теме нет новых непрочитанных сообщений. Миф / San wa [фэнтези, боевик, драма, 2005] DVDRip-AVC, Mvo

salma3

21 | 1

1.46 ГБ

В этой теме нет новых непрочитанных сообщений. Таинственный клинок / Mystic Blade [фэнтези, боевик, драма, 2013] DVDRip, Avo

salma3

188 | 7

1.38 ГБ

В этой теме нет новых непрочитанных сообщений. Я / I [фантастика, фэнтези, боевик, 2015] DVDRip, Dvo+Sub

salma3

145 | 12

1.41 ГБ

В этой теме нет новых непрочитанных сообщений. Дом-призрак / Haunted - 3D [ужасы, фэнтези, боевик 2011] HDRip, Mvo

salma3

21 | 3

1.4 ГБ

В этой теме нет новых непрочитанных сообщений. Я твоя ведьма / Nenu Naa Rakshasi [боевик, драма, 2011] DVDRip, Dvo+Sub

salma3

12 | 8

1.46 ГБ

В этой теме нет новых непрочитанных сообщений. Код «Омега» / The Omega Code [фантастика, фэнтези, боевик, 1999] DVDRip, Mvo

salma3

118 | 39

1.46 ГБ

В этой теме нет новых непрочитанных сообщений. Ловчий cмерти / Deathstalker [фэнтези, боевик, приключения, 1983] DVDRip, Avo

salma3

184 | 21

807.72 МБ


Начать новую тему Ответить на тему  [ 1 сообщение ] 




Для Мосгорсуда, Роскомнадзора и рекламодателей:: mosgorsud-torrent[собачка]yandex.ru