Торрент файл
скачать торрент магнет ссылка Добавлен: 22 янв 2012, 14:39
Размер: 699.09 МБ
Сидеров: 62
Личеров: 10
Автор

СообщениеДобавлено: 22 янв 2012, 14:39 

Не в сети
Супермодератор
Аватара пользователя
Дата регистрации:
11 апр 2010, 18:10
Спасибо: 5799 / 7
Сообщения: 56779
[b]Трансформеры 3: Тёмная сторона Луны / Transformers: Dark of the Moon[/b]



Перевод: Профессиональный (полное дублирование) [Звук с TS], cубтитры: отсутствуют

Формат: LowHDRip, AVI, XviD, MP3

Страна: США

Режиссер: Майкл Бэй

Жанр: фэнтези, драма, мелодрама

Продолжительность: 02:34:21

Год выпуска: 2011

В ролях: Шайа ЛаБаф, Джош Дюамель, Джон Туртурро, Тайриз Гибсон, Роузи Хантингтон-Уайтли, Патрик Демпси, Кевин Данн, Джули Уайт, Хьюго Уивинг, Кен Жонг, Джон Малкович

Описание: Для наших героев наступили печальные будни: Сэм потерял Микаэлу, правительство выпускает законодательный акт о выселении Автоботов с Земли, а пока Мегатрон скрывается после позорного поражения Фоллена, десептикон Шокуэйв, правитель Кибертрона, готовится нанести визит нашей планете с совсем не добрыми намерениями. Действие заключительной части трилогии на этот раз охватит не только Землю, но и Луну, темная сторона которой хранит не менее темные тайны.

[/field]

Видео: 640x272 (2.35:1), 23.976 fps, XviD build 46 ~511 kbps avg, 0.12 bit/pixel
Аудио: 44.100 kHz, MPEG Layer 3, 2 ch, ~112.00 kbps avg

Бюджет $195 000 000

Сборы в США $345 528 029

Сборы в мире + $707 967 349 = $1 053 495 378

Сборы в России $44 783 548

Релиз на DVD Ноябрь 2011, «Юниверсал Пикчерс Рус»
*Фильм снимался в 3D-формате с помощью 3D-камер.

*Это последний фильм из серии «Трансформеры», который будет снимать Майкл Бэй и в котором будет играть Шайа ЛаБаф.

*Девушку главного героя должна была играть, как обычно Меган Фокс, но она покинула проект из-за разногласий с режиссёром.

*Главными претендентками на роль Карли были Бруклин Деккер и Сара Райт. Также её могли сыграть Джемма Артертон, Эшли Грин, Миранда Керр, Бар Рафаэли, Эмбер Херд, Камилла Белль, Кэти Кэссиди, Хайди Монтаг и Анна Кендрик.

*Сентинел Прайм (озвучивал в оригинале Леонард Нимой) перед финальной битвой с Оптимусом говорит: «Потребности большинства перевешивают потребности меньшинства». Примечательно что это фраза является фразой Спока (Звёздный путь) которого исполнял Леонард Нимой. Кроме того, в начале фильма трансформеры в доме Сэма смотрят по телевизору эпизод Звёздного Пути и обсуждают Спока, которого в этот момент показывают.

*Когда Сэм, Сеймур Симмонс и Голландец приезжают в клуб, на фоне играет музыка Серёги «Дискомалярия», но этой композиции нет в списке саундтреков (не вошёл в сборник «Transformers: Dark of the Moon — The Album»).

*В фильме Майкл Бэй использовал кадры из своего предыдущего фильма: в сцене на автостраде, когда Десептиконы пытаются захватить Сентинела Прайма, использованы кадры из фильма «Остров». К подобному приёму он уже прибегал при создании фильма «Трансформеры» — в нём на одном из общих планов использованы кадры из фильма «Пёрл-Харбор».

*Первоначально доспехи Сентинела Прайма были жёлтыми (как показано в первом трейлере), а в фильме они уже красного цвета.

*Один из пассажирских самолётов в фильме носит номер «4500X». У вертолета Sikorsky CH-53, в который трансформировался десептикон Блэкаут из первой части, был такой же номер.

*В фильме повторяется традиционная путаница городов Чернобыльской зоны: в фильме показан город Припять, но на дорожном знаке при въезде в город написано «Чорнобиль».

*В одной из сцен Бамблби спасает Сэма и Леннокса, только что убивших Старскрима, но уже в следующей сцене он находится в плену у Десептиконов.

*Автобот Уилджек (Кью) выглядит как Десмонд Ллевелин — исполнитель роли Кью в бондиаде. Автобот снабдил людей секретной инопланетной технологией(бомбой) также, как и «настоящий» Кью, который снабжал Джеймса Бонда последними военными разработками.
General
Complete name: E:\Загрузки\Transformery.3.Temnaya.storona.luny.2011.Dub.TS.PROPER.avi
Format: AVI
Format/Info: Audio Video Interleave
Format profile: OpenDML
File size: 2.19 GiB
Duration: 2h 24mn
Overall bit rate: 2 170 Kbps
Movie name: Transformers: Dark of the Moon (2011) TS *PROPER*
Director: Релиз by danis92!
Writing application: VirtualDubMod 1.5.10.2 (build 2542/release)
Copyright: danis92

Video
ID: 0
Format: MPEG-4 Visual
Format profile: Advanced Simple@L5
Format settings, BVOP: 2
Format settings, QPel: No
Format settings, GMC: No warppoints
Format settings, Matrix: Custom
Codec ID: XVID
Codec ID/Hint: XviD
Duration: 2h 24mn
Bit rate: 1 998 Kbps
Width: 720 pixels
Height: 304 pixels
Display aspect ratio: 2.35:1
Frame rate: 25.000 fps
Color space: YUV
Chroma subsampling: 4:2:0
Bit depth: 8 bits
Scan type: Progressive
Compression mode: Lossy
Bits/(Pixel*Frame): 0.365
Stream size: 2.01 GiB (92%)
Writing library: XviD 63

Audio
ID: 1
Format: AC-3
Format/Info: Audio Coding 3
Mode extension: CM (complete main)
Codec ID: 2000
Duration: 2h 24mn
Bit rate mode: Constant
Bit rate: 160 Kbps
Channel(s): 2 channels
Channel positions: Front: L R
Sampling rate: 48.0 KHz
Bit depth: 16 bits
Compression mode: Lossy
Stream size: 165 MiB (7%)
Alignment: Split accross interleaves
Interleave, duration: 40 ms (1.00 video frame)
Interleave, preload duration: 500 ms









Поделиться:




реклама партнёра


Вернуться к началу
 Профиль Отправить личное сообщение  
 
   Похожие торренты   Автор   Торрент   Размер 
В этой теме нет новых непрочитанных сообщений. Тёмная сторона Луны / Die dunkle Seite des Mondes [триллер, 2015] BDRip 1080p, Mvo

salma3

33 | 4

7.32 ГБ

В этой теме нет новых непрочитанных сообщений. Тёмная сторона Луны / Die dunkle Seite des Mondes (Штефан Рик / Stephan Rick) [2015г., Германия, триллер, BDRip] AVO + MVO

Alfredovich

22 | 7

1.59 ГБ

В этой теме нет новых непрочитанных сообщений. Светлая сторона Луны / La prima notte della Luna / The bright side of the Moon (Массимо Гульельми / Massimo Guglielmi) [2010г., драма, SATRip] DVO

Alfredovich

7 | 2

1.36 ГБ

В этой теме нет новых непрочитанных сообщений. Трансформеры: Эпоха истребления / Transformers: Age Of Extinction (Майкл Бэй) [2014, Фантастика, боевик, приключения, ВDRip-AVC 1080p] [Дубляж, Чистый звук]

Враг Нароода

12 | 3

10.08 ГБ

В этой теме нет новых непрочитанных сообщений. Клэр, которая упала с луны / Claire of the Moon [драма, мелодрама, 1992] DVDRip, Avo

salma3

15 | 4

1.37 ГБ

В этой теме нет новых непрочитанных сообщений. Обратная сторона Луны [1-16 из 16] [2012г.,Фантастика, драма, криминал, детектив] WEBRip

iopuk60

0 | 7

8.69 ГБ

В этой теме нет новых непрочитанных сообщений. Дитя луны / Moon Child [фантастика, боевик, драма, 2003] BDRip 1080p, Mvo+Sub

salma3

37 | 19

9.15 ГБ


Начать новую тему Ответить на тему  [ 1 сообщение ] 




Для Мосгорсуда, Роскомнадзора и рекламодателей:: mosgorsud-torrent[собачка]yandex.ru