Торрент файл
скачать торрент магнет ссылка Добавлен: 22 янв 2012, 14:39
Размер: 2.22 ГБ
Сидеров: 83
Личеров: 15
Автор

СообщениеДобавлено: 22 янв 2012, 14:39 

Не в сети
Супермодератор
Аватара пользователя
Дата регистрации:
11 апр 2010, 18:10
Спасибо: 5801 / 7
Сообщения: 56779
Сфера / Sphere

Перевод: Профессиональный (полное дублирование), cубтитры: Русские, Английские (полные, отключаемые)
Формат: HDRip, MKV, H.264, AC3
Страна: США
Режиссер: Барри Левинсон
Жанр: фантастика, ужасы, триллер
Продолжительность: 02:14:12
Год выпуска: 1998
В ролях: Дастин Хоффман, Шэрон Стоун, Сэмюэл Л. Джексон, Питер Койот, Лив Шрайбер, Куин Латифа, Марга Гомез, Хьюи Льюис, Бернард Хок, Джеймс Пикенс мл.
Описание: На дне океана найден космический корабль, упавший туда лет 300 тому назад. Рядом с находкой сооружается подводная станция, и на нее прибывает команда ученых-специалистов: доктор Норман Гудмэн, доктор Элизабет Гальперин, доктор Гарри Эдамс, доктор Тэд Филдинг и другие коллеги. Возглавляет отряд капитан Хэролд Барнс.
Вскоре ученые обнаруживают по соседству со станцией гигантский блестящий шар. Им удается проникнуть внутрь сферы, хотя никаких дверей или каких-либо иных проемов не наблюдалось. После этого начались кошмары, потому что сфера проецировала в реальность сны и желания тех, кто побывал внутри нее…


Видео: 1280x534 (2,40:1), 23,976 fps, MPEG4 AVC (х264), High@L4.1 ~2000kbps avg, 0,122 bit/pixe
Аудио: 48 kHz, AC-3, 6 ch, ~384.00 kbps avg


Автор РИПа:
Общее
Уникальный идентификатор : 196753490728801259674367800526329533542 (0x9405580CD3D4470A873458913A3AD466)
Полное имя : f:\Downloads\Sphere_[tfile.ru].mkv
Формат : Matroska
Размер файла : 2,22 Гбайт
Продолжительность : 2 ч. 14 м.
Общий поток : 2370 Кбит/сек
Дата кодирования : UTC 2011-09-25 03:05:30
Программа кодирования : mkvmerge v4.6.0 ('Still Crazy After All These Years') сборка от Mar 10 2011 02:50:32
Библиотека кодирования : libebml v1.2.0 + libmatroska v1.1.0

Видео
Идентификатор : 1
Формат : AVC
Формат/Информация : Advanced Video Codec
Профиль формата : High@L4.1
Параметр CABAC формата : Да
Параметр ReFrames формата : 3 кадра
Режим смешивания : Header stripping
Идентификатор кодека : V_MPEG4/ISO/AVC
Продолжительность : 2 ч. 14 м.
Битрейт : 2000 Кбит/сек
Ширина : 1280 пикс.
Высота : 534 пикс.
Соотношение сторон : 2,40:1
Режим частоты кадров : Переменный
Частота кадров : 23,976 кадр/сек
Цветовое пространство : YUV
Подвыборка цветности : 4:2:0
Битовая глубина : 8 бит
Тип развёртки : Прогрессивная
Бит/(Пиксели*Кадры) : 0.122
Размер потока : 1,82 Гбайт (82%)
Библиотека кодирования : x264 core 116 r2019M 9cc407d
Настройки программы : cabac=1 / ref=3 / deblock=1:-1:-1 / analyse=0x3:0x133 / me=hex / subme=7 / psy=1 / psy_rd=1.00:0.15 / mixed_ref=1 / me_range=16 / chroma_me=1 / trellis=1 / 8x8dct=1 / cqm=0 / deadzone=21,11 / fast_pskip=1 / chroma_qp_offset=-3 / threads=8 / sliced_threads=0 / nr=0 / decimate=1 / interlaced=0 / bluray_compat=0 / constrained_intra=0 / bframes=3 / b_pyramid=1 / b_adapt=2 / b_bias=0 / direct=3 / weightb=1 / open_gop=0 / weightp=2 / keyint=230 / keyint_min=23 / scenecut=40 / intra_refresh=0 / rc_lookahead=40 / rc=abr / mbtree=1 / bitrate=2000 / ratetol=1.0 / qcomp=0.60 / qpmin=10 / qpmax=51 / qpstep=4 / ip_ratio=1.40 / aq=1:1.00
Язык : English

Аудио
Идентификатор : 2
Формат : AC-3
Формат/Информация : Audio Coding 3
Расширение режима : CM (complete main)
Режим смешивания : Header stripping
Идентификатор кодека : A_AC3
Продолжительность : 2 ч. 14 м.
Вид битрейта : Постоянный
Битрейт : 384 Кбит/сек
Каналы : 6 каналов
Расположение каналов : Front: L C R, Side: L R, LFE
Частота : 48,0 КГц
Битовая глубина : 16 бит
Метод сжатия : С потерями
Размер потока : 369 Мбайт (16%)
Заголовок : DUB
Язык : Russian

Текст #1
Идентификатор : 3
Формат : UTF-8
Идентификатор кодека : S_TEXT/UTF8
Идентификатор кодека/Информация : UTF-8 Plain Text
Язык : Russian

Текст #2
Идентификатор : 4
Формат : UTF-8
Идентификатор кодека : S_TEXT/UTF8
Идентификатор кодека/Информация : UTF-8 Plain Text
Язык : English

Меню
00:00:00.000 : en:00:00:00.000
00:02:52.756 : en:00:02:52.756
00:04:47.120 : en:00:04:47.120
00:07:20.815 : en:00:07:20.815
00:10:08.066 : en:00:10:08.066
00:13:25.054 : en:00:13:25.054
00:18:28.149 : en:00:18:28.149
00:20:14.422 : en:00:20:14.422
00:24:32.471 : en:00:24:32.471
00:27:04.289 : en:00:27:04.289
00:30:23.780 : en:00:30:23.780
00:32:40.750 : en:00:32:40.750
00:34:39.286 : en:00:34:39.286
00:37:25.869 : en:00:37:25.869
00:39:49.596 : en:00:39:49.596
00:42:33.301 : en:00:42:33.301
00:46:14.188 : en:00:46:14.188
00:50:44.500 : en:00:50:44.500
00:52:29.355 : en:00:52:29.355
00:57:09.259 : en:00:57:09.259
00:58:29.756 : en:00:58:29.756
01:04:11.806 : en:01:04:11.806
01:07:30.171 : en:01:07:30.171
01:09:45.598 : en:01:09:45.598
01:11:51.182 : en:01:11:51.182
01:15:41.954 : en:01:15:41.954
01:17:33.023 : en:01:17:33.023
01:20:56.393 : en:01:20:56.393
01:23:28.462 : en:01:23:28.462
01:26:42.656 : en:01:26:42.656
01:28:38.939 : en:01:28:38.939
01:34:18.862 : en:01:34:18.862
01:35:50.078 : en:01:35:50.078
01:38:50.258 : en:01:38:50.258
01:41:51.063 : en:01:41:51.063
01:43:59.692 : en:01:43:59.692
01:46:06.277 : en:01:46:06.277
01:52:37.042 : en:01:52:37.042
01:57:23.078 : en:01:57:23.078
02:01:19.355 : en:02:01:19.355
02:02:59.080 : en:02:02:59.080
02:07:05.243 : en:02:07:05.243
02:10:32.825 : en:02:10:32.825












Поделиться:




реклама партнёра


Вернуться к началу
 Профиль Отправить личное сообщение  
 
   Похожие торренты   Автор   Торрент   Размер 
В этой теме нет новых непрочитанных сообщений. Унижение / The Humbling (Барри Левинсон) [Драма, Комедия, 2014] HDRip, dvo

Dracon

6 | 4

1.37 ГБ

В этой теме нет новых непрочитанных сообщений. Унижение / The Humbling (Барри Левинсон) [Драма, Комедия, 2014] HDRip, Mvo [Лицензия]

Dracon

349 | 11

1.37 ГБ

В этой теме нет новых непрочитанных сообщений. Унижение / The Humbling (Барри Левинсон) [Драма, Комедия, 2014] WEB-DL 720p, dvo

Dracon

7 | 3

3.46 ГБ

В этой теме нет новых непрочитанных сообщений. Унижение / The Humbling (Барри Левинсон) [Драма, Комедия, 2014] WEB-DLRip, dvo

Dracon

7 | 3

1.45 ГБ

В этой теме нет новых непрочитанных сообщений. Унижение / The Humbling (Барри Левинсон) [Драма, Комедия, 2014] DVD5, Mvo [Лицензия]

Dracon

31 | 13

4.37 ГБ

В этой теме нет новых непрочитанных сообщений. Унижение / The Humbling (Барри Левинсон) [Драма, Комедия, 2014] BDRip 720p, dvo

Dracon

4 | 4

4.51 ГБ

В этой теме нет новых непрочитанных сообщений. Мумия: Принц Египта / Tale of the Mummy [Ужасы, фантастика, триллер, 1998] HDRip, Dvo

salma3

71 | 7

1.46 ГБ


Начать новую тему Ответить на тему  [ 1 сообщение ] 




Для Мосгорсуда, Роскомнадзора и рекламодателей:: mosgorsud-torrent[собачка]yandex.ru