Торрент файл
скачать торрент магнет ссылка Добавлен: 22 янв 2012, 14:37
Размер: 2.12 ГБ
Сидеров: 50
Личеров: 11
Автор

СообщениеДобавлено: 22 янв 2012, 14:37 

Не в сети
Супермодератор
Аватара пользователя
Дата регистрации:
11 апр 2010, 18:10
Спасибо: 5802 / 7
Сообщения: 56779
Чужие среди нас / They Live

Перевод: Профессиональный (многоголосый, закадровый) (CP Digital), cубтитры: Русские, Английские (полные, отключаемые)
Формат: HDRip, MKV, H.264, AC3
Страна: США
Режиссер: Джон Карпентер
Жанр: фантастика, боевик, триллер
Продолжительность: 01:34:21
Год выпуска: 1988
В ролях: Родди Пайпер, Кит Дэвид, Мег Фостер, Джордж «Бак» Флауэр, Питер Джейсон, Рэймонд Сейнт-Жак,Джейсон Робардс III, Джон Лоуренс, Сьюзэн Барнс, Сай Ричардсон
Описание: Однажды простой рабочий-строитель Нейда, которому не очень везёт в жизни, находит необычные солнечные очки. Надев их, он получает возможность увидеть мир таким, какой он есть.
Реальность пугает! Оказывается, правительство и средства массовой информации бомбардируют людей скрытыми сообщениями, воздействующими на уровне подсознания: «Спите!», «Не давайте волю воображению», «Подчиняйтесь властям».
А что еще страшнее, Нейда увидел истинное обличье многих политиков и важных членов общества! Они и не люди вовсе, а безобразные и злые инопланетяне с планеты Андромеда. Их миссия на Земле-проводить массовую кампанию по подчинению землян своей воле и держать людей в неведении…
Нейда должен найти людей, которые, как и он, знают об истинном положении вещей (кто еще мог изготовить эти чудесные очки?), и присоединиться к их движению сопротивления, чтобы бороться!


Видео: 1280x574 (2,25:1), 24 fps, MPEG4 AVC (х264), High@L4.1 ~2800kbps avg, 0,159 bit/pixe
Аудио: 48 kHz, AC-3, 6 ch, ~448.00 kbps avg


Автор РИПа:
Общее
Уникальный идентификатор : 236440483590818239397933480211241339314 (0xB1E0C7DEA95B1EA6BBB34C35BB5989B2)
Полное имя : f:\Downloads\they_live_[tfile.ru].mkv
Формат : Matroska
Размер файла : 2,12 Гбайт
Продолжительность : 1 ч. 34 м.
Общий поток : 3219 Кбит/сек
Дата кодирования : UTC 2011-10-03 13:07:07
Программа кодирования : mkvmerge v4.6.0 ('Still Crazy After All These Years') сборка от Mar 10 2011 02:50:32
Библиотека кодирования : libebml v1.2.0 + libmatroska v1.1.0

Видео
Идентификатор : 1
Формат : AVC
Формат/Информация : Advanced Video Codec
Профиль формата : High@L4.1
Параметр CABAC формата : Да
Параметр ReFrames формата : 3 кадра
Параметры GOP формата : M=4, N=23
Режим смешивания : Header stripping
Идентификатор кодека : V_MPEG4/ISO/AVC
Продолжительность : 1 ч. 34 м.
Битрейт : 2800 Кбит/сек
Ширина : 1280 пикс.
Высота : 574 пикс.
Соотношение сторон : 2,25:1
Режим частоты кадров : Переменный
Частота кадров : 24,000 кадр/сек
Цветовое пространство : YUV
Подвыборка цветности : 4:2:0
Битовая глубина : 8 бит
Тип развёртки : Прогрессивная
Бит/(Пиксели*Кадры) : 0.159
Размер потока : 1,78 Гбайт (84%)
Библиотека кодирования : x264 core 116 r2019M 9cc407d
Настройки программы : cabac=1 / ref=3 / deblock=1:-1:-1 / analyse=0x3:0x133 / me=hex / subme=7 / psy=1 / psy_rd=1.00:0.15 / mixed_ref=1 / me_range=16 / chroma_me=1 / trellis=1 / 8x8dct=1 / cqm=0 / deadzone=21,11 / fast_pskip=1 / chroma_qp_offset=-3 / threads=8 / sliced_threads=0 / nr=0 / decimate=1 / interlaced=0 / bluray_compat=0 / constrained_intra=0 / bframes=3 / b_pyramid=1 / b_adapt=2 / b_bias=0 / direct=3 / weightb=1 / open_gop=0 / weightp=2 / keyint=240 / keyint_min=24 / scenecut=40 / intra_refresh=0 / rc_lookahead=40 / rc=abr / mbtree=1 / bitrate=2800 / ratetol=1.0 / qcomp=0.60 / qpmin=10 / qpmax=51 / qpstep=4 / vbv_maxrate=31250 / vbv_bufsize=31250 / nal_hrd=none / ip_ratio=1.40 / aq=1:1.00
Язык : English

Аудио
Идентификатор : 2
Формат : AC-3
Формат/Информация : Audio Coding 3
Расширение режима : CM (complete main)
Режим смешивания : Header stripping
Идентификатор кодека : A_AC3
Продолжительность : 1 ч. 34 м.
Вид битрейта : Постоянный
Битрейт : 448 Кбит/сек
Каналы : 6 каналов
Расположение каналов : Front: L C R, Side: L R, LFE
Частота : 48,0 КГц
Битовая глубина : 16 бит
Метод сжатия : С потерями
Размер потока : 302 Мбайт (14%)
Заголовок : MVO
Язык : Russian

Текст #1
Идентификатор : 3
Формат : UTF-8
Идентификатор кодека : S_TEXT/UTF8
Идентификатор кодека/Информация : UTF-8 Plain Text
Язык : Russian

Текст #2
Идентификатор : 4
Формат : UTF-8
Идентификатор кодека : S_TEXT/UTF8
Идентификатор кодека/Информация : UTF-8 Plain Text
Язык : English

Меню
00:00:00.000 : :00:00:00.000
00:11:42.792 : :00:11:42.792
00:22:32.917 : :00:22:32.917
00:32:20.250 : :00:32:20.250
00:43:29.333 : :00:43:29.333
00:55:36.417 : :00:55:36.417
01:06:44.042 : :01:06:44.042
01:16:54.333 : :01:16:54.333














Поделиться:




реклама партнёра


Вернуться к началу
 Профиль Отправить личное сообщение  
 
   Похожие торренты   Автор   Торрент   Размер 
В этой теме нет новых непрочитанных сообщений. Чужие среди нас / They Live [ужасы, фантастика, боевик, триллер, 1988] BDRip, Mvo

salma3

12 | 2

1.45 ГБ

В этой теме нет новых непрочитанных сообщений. Прогулка среди могил / A Walk Among the Tombstones [боевик, триллер, криминал, 2014] HDRip, Mvo

salma3

6316 | 276

1.36 ГБ

В этой теме нет новых непрочитанных сообщений. Чужие на районе / Attack the Block [фантастика, боевик, триллер, комедия, 2011] BDRip 1080p, Mvo

salma3

24 | 12

11.47 ГБ

В этой теме нет новых непрочитанных сообщений. Чужие на районе / Attack the Block [фантастика, боевик, триллер, комедия, 2011] BDRemux 1080p, Mvo

salma3

10 | 6

20.54 ГБ

В этой теме нет новых непрочитанных сообщений. Инфекция: Они среди нас / Infected [Фантастика, триллер, 2008] DVDRip, Mvo

salma3

275 | 9

1.37 ГБ

В этой теме нет новых непрочитанных сообщений. Чужие против ниндзя / Alien vs. Ninja [ужасы, боевик, фантастика, комедия, 2010] DVDRip, Mvo

salma3

4 | 2

1.37 ГБ

В этой теме нет новых непрочитанных сообщений. Герой и Ужас / Hero and the Terror [триллер, боевик, драма, криминал, 1988] HDRip, Mvo+avo

salma3

47 | 19

1.85 ГБ


Начать новую тему Ответить на тему  [ 1 сообщение ] 




Для Мосгорсуда, Роскомнадзора и рекламодателей:: mosgorsud-torrent[собачка]yandex.ru