Торрент файл
скачать торрент магнет ссылка Добавлен: 22 янв 2012, 14:35
Размер: 2.19 ГБ
Сидеров: 99
Личеров: 15
Автор

СообщениеДобавлено: 22 янв 2012, 14:35 

Не в сети
Супермодератор
Аватара пользователя
Дата регистрации:
11 апр 2010, 18:10
Спасибо: 5798 / 7
Сообщения: 56779
Неуязвимый / Unbreakable

Перевод: Профессиональный (полное дублирование), cубтитры: отсутствуют
Формат: HDRip, MKV, H.264, AC3
Страна: США
Режиссер: М. Найт Шьямалан
Жанр: фэнтези, триллер, драма, детектив
Продолжительность: 01:46:39
Год выпуска: 2000
В ролях: Брюс Уиллис, Сэмюэл Л. Джексон, Робин Райт, Спенсер Трит Кларк, Чарлэйн Вудард, Имонн Уолкер, Лесли Стефансон, Джонни Хирам Джеймисон, Мишелия Кэрролл, Бостин Кристофер
Описание: В 3:15 пополудни происходит страшная железнодорожная катастрофа. Из 132 пассажиров в живых остается только один. Дэйвид Данн не просто уцелел посреди мгновенного ада из железа и огня-он не получил ни одной царапины. И лишь один человек на земле знает причину этого чуда-Элайджа Прайс по прозвищу «Мистер Стекло», чьи кости могут сломаться даже от незначительного внешнего усилия…

Видео: 1280x544 (2,35:1), 23,976 fps, AVC (х264), High@L4.1 ~2500 kbps avg, 0.150
Аудио: 48 kHz, AC-3, 6 ch, ~448.00 kbps avg


Автор РИПа:
Общее
Уникальный идентификатор : 233286136718439455001242182928676589722 (0xAF81468FCBA81C1E9B0FEEF94732909A)
Полное имя : f:\Downloads\unbreakable_[tfile.ru].mkv
Формат : Matroska
Размер файла : 2,19 Гбайт
Продолжительность : 1 ч. 46 м.
Общий поток : 2934 Кбит/сек
Дата кодирования : UTC 2011-10-05 06:11:36
Программа кодирования : mkvmerge v4.6.0 ('Still Crazy After All These Years') сборка от Mar 10 2011 02:50:32
Библиотека кодирования : libebml v1.2.0 + libmatroska v1.1.0

Видео
Идентификатор : 1
Формат : AVC
Формат/Информация : Advanced Video Codec
Профиль формата : High@L4.1
Параметр CABAC формата : Да
Параметр ReFrames формата : 3 кадра
Режим смешивания : Header stripping
Идентификатор кодека : V_MPEG4/ISO/AVC
Продолжительность : 1 ч. 46 м.
Битрейт : 2500 Кбит/сек
Ширина : 1280 пикс.
Высота : 544 пикс.
Соотношение сторон : 2,35:1
Режим частоты кадров : Переменный
Частота кадров : 23,976 кадр/сек
Цветовое пространство : YUV
Подвыборка цветности : 4:2:0
Битовая глубина : 8 бит
Тип развёртки : Прогрессивная
Бит/(Пиксели*Кадры) : 0.150
Размер потока : 1,81 Гбайт (83%)
Библиотека кодирования : x264 core 116 r2019M 9cc407d
Настройки программы : cabac=1 / ref=3 / deblock=1:-1:-1 / analyse=0x3:0x133 / me=hex / subme=7 / psy=1 / psy_rd=1.00:0.15 / mixed_ref=1 / me_range=16 / chroma_me=1 / trellis=1 / 8x8dct=1 / cqm=0 / deadzone=21,11 / fast_pskip=1 / chroma_qp_offset=-3 / threads=8 / sliced_threads=0 / nr=0 / decimate=1 / interlaced=0 / bluray_compat=0 / constrained_intra=0 / bframes=3 / b_pyramid=1 / b_adapt=2 / b_bias=0 / direct=3 / weightb=1 / open_gop=0 / weightp=2 / keyint=230 / keyint_min=23 / scenecut=40 / intra_refresh=0 / rc_lookahead=40 / rc=abr / mbtree=1 / bitrate=2500 / ratetol=1.0 / qcomp=0.60 / qpmin=10 / qpmax=51 / qpstep=4 / vbv_maxrate=31250 / vbv_bufsize=31250 / nal_hrd=none / ip_ratio=1.40 / aq=1:1.00
Язык : English

Аудио
Идентификатор : 2
Формат : AC-3
Формат/Информация : Audio Coding 3
Расширение режима : CM (complete main)
Режим смешивания : Header stripping
Идентификатор кодека : A_AC3
Продолжительность : 1 ч. 46 м.
Вид битрейта : Постоянный
Битрейт : 448 Кбит/сек
Каналы : 6 каналов
Расположение каналов : Front: L C R, Side: L R, LFE
Частота : 48,0 КГц
Битовая глубина : 16 бит
Метод сжатия : С потерями
Размер потока : 342 Мбайт (15%)
Заголовок : DUB
Язык : Russian












Поделиться:




реклама партнёра


Вернуться к началу
 Профиль Отправить личное сообщение  
 
   Похожие торренты   Автор   Торрент   Размер 
В этой теме нет новых непрочитанных сообщений. Визит / The Visit (М. Найт Шьямалан) [Ужасы, триллер, 2015] HDRip, Dub

Dracon

11811 | 778

1.37 ГБ

В этой теме нет новых непрочитанных сообщений. Визит / The Visit (М. Найт Шьямалан) [2015, ужасы, триллер, HDRip | Лицензия] Dub

Nickolas3435

2730 | 144

1.45 ГБ

В этой теме нет новых непрочитанных сообщений. Визит / The Visit (М. Найт Шьямалан) [Ужасы, триллер, 2015] BDRip 1080p, avo

Dracon

124 | 20

7.98 ГБ

В этой теме нет новых непрочитанных сообщений. Визит / The Visit (М. Найт Шьямалан) [Ужасы, триллер, 2015] BDRip 720p, avo

Dracon

1050 | 90

4.46 ГБ

В этой теме нет новых непрочитанных сообщений. Дракула 2000 / Dracula 2000 [ужасы, фэнтези, боевик, триллер, 2000] BDRip 720p, Dub+Sub

salma3

101 | 8

3.83 ГБ

В этой теме нет новых непрочитанных сообщений. Дракула 2000 / Dracula 2000 [ужасы, фэнтези, боевик, триллер, 2000] BDRip 1080p, Dub+Sub

salma3

54 | 14

9.81 ГБ

В этой теме нет новых непрочитанных сообщений. Круг / Cirkeln (Леван Акин) [фэнтези, триллер, драма, детектив, 2015] HDRip, avo

Dracon

17 | 0

1.46 ГБ


Начать новую тему Ответить на тему  [ 1 сообщение ] 




Для Мосгорсуда, Роскомнадзора и рекламодателей:: mosgorsud-torrent[собачка]yandex.ru