Торрент файл
скачать торрент магнет ссылка Добавлен: 22 янв 2012, 14:35
Размер: 3.07 ГБ
Сидеров: 21
Личеров: 11
Автор

СообщениеДобавлено: 22 янв 2012, 14:35 

Не в сети
Супермодератор
Аватара пользователя
Дата регистрации:
11 апр 2010, 18:10
Спасибо: 5799 / 7
Сообщения: 56779
Жизненная сила / Lifeforce

Перевод: Профессиональный (многоголосый, закадровый), cубтитры: Английские (полные, отключаемые)
Формат: HDTVRip, MKV, H.264, AC3
Страна: Великобритания
Режиссер: Тоуб Хупер
Жанр: фантастика, ужасы, триллер
Продолжительность: 01:56:09
Год выпуска: 1985
В ролях: Стив Рейлсбэк, Питер Фёрт, Фрэнк Финлей, Матильда Мэй, Патрик Стюарт, Майкл Гозард, Николас Болл, Обри Моррис, Нэнси Пол, Джон Хэллам
Описание: Космическая экспедиция исследует комету Галлея и натыкается на новую форму разумной жизни-нечто вроде космических вампиров, вместо крови черпающих энергию из своих жертв. Забрав этих чудовищ в образах очень красивой обнаженной женщины и двух мужчин на борт, космонавты совершили страшную ошибку. Мало того, что все они, кроме Рэйлсбэка погибли, вампиры проникли на Землю, где начали массовую заготовку жизенной силы, забирая ее у людей, превращавшихся в нечто вроде зомби. Все это напоминает конец света.

Видео: 1280x544 (2,35:1), 23,976 fps, MPEG4 AVC (х264), High@L4.1 ~2500 kbps avg, 0.150 bit/pixe
Аудио#1:Русский: 48 kHz,AC-3, 1 ch, ~128.00 kbps avg [Профессиональный (многоголосый, закадровый)]
Аудио#2:Русский: 48 kHz,AC-3, 6 ch, ~384.00 kbps avg [Внешним файлом: Авторский (одноголосый) (Андрей Гаврилов)]
Аудио#3:Английский: 48 kHz,AC-3, 2 ch, ~384.00 kbps avg [Внешним файлом: Оригинал]
Аудио#4:Русский: 48 kHz,AC-3, 6 ch, ~384.00 kbps avg [Внешним файлом: Авторский (одноголосый) (Сергей Визгунов)]


Автор РИПа:
Общее
Уникальный идентификатор : 200918780614917734614512069095322510951 (0x97278CB26DB708BCB6DEEDB5FCBF6667)
Полное имя : f:\Downloads\lifeforce_[tfile.ru]\lifeforce_[tfile.ru].mkv
Формат : Matroska
Размер файла : 2,13 Гбайт
Продолжительность : 1 ч. 56 м.
Общий поток : 2629 Кбит/сек
Дата кодирования : UTC 2011-10-08 23:15:44
Программа кодирования : mkvmerge v4.6.0 ('Still Crazy After All These Years') сборка от Mar 10 2011 02:50:32
Библиотека кодирования : libebml v1.2.0 + libmatroska v1.1.0

Видео
Идентификатор : 1
Формат : AVC
Формат/Информация : Advanced Video Codec
Профиль формата : High@L4.1
Параметр CABAC формата : Да
Параметр ReFrames формата : 3 кадра
Режим смешивания : Header stripping
Идентификатор кодека : V_MPEG4/ISO/AVC
Продолжительность : 1 ч. 56 м.
Битрейт : 2500 Кбит/сек
Ширина : 1280 пикс.
Высота : 544 пикс.
Соотношение сторон : 2,35:1
Режим частоты кадров : Переменный
Частота кадров : 23,976 кадр/сек
Цветовое пространство : YUV
Подвыборка цветности : 4:2:0
Битовая глубина : 8 бит
Тип развёртки : Прогрессивная
Бит/(Пиксели*Кадры) : 0.150
Размер потока : 1,99 Гбайт (93%)
Библиотека кодирования : x264 core 116 r2019M 9cc407d
Настройки программы : cabac=1 / ref=3 / deblock=1:-1:-1 / analyse=0x3:0x133 / me=hex / subme=7 / psy=1 / psy_rd=1.00:0.15 / mixed_ref=1 / me_range=16 / chroma_me=1 / trellis=1 / 8x8dct=1 / cqm=0 / deadzone=21,11 / fast_pskip=1 / chroma_qp_offset=-3 / threads=8 / sliced_threads=0 / nr=0 / decimate=1 / interlaced=0 / bluray_compat=0 / constrained_intra=0 / bframes=3 / b_pyramid=1 / b_adapt=2 / b_bias=0 / direct=3 / weightb=1 / open_gop=0 / weightp=2 / keyint=230 / keyint_min=23 / scenecut=40 / intra_refresh=0 / rc_lookahead=40 / rc=abr / mbtree=1 / bitrate=2500 / ratetol=1.0 / qcomp=0.60 / qpmin=10 / qpmax=51 / qpstep=4 / vbv_maxrate=31250 / vbv_bufsize=31250 / nal_hrd=none / ip_ratio=1.40 / aq=1:1.00
Язык : English

Аудио
Идентификатор : 2
Формат : AC-3
Формат/Информация : Audio Coding 3
Расширение режима : CM (complete main)
Режим смешивания : Header stripping
Идентификатор кодека : A_AC3
Продолжительность : 1 ч. 56 м.
Вид битрейта : Постоянный
Битрейт : 128 Кбит/сек
Каналы : 1 канал
Расположение каналов : Front: C
Частота : 48,0 КГц
Битовая глубина : 16 бит
Метод сжатия : С потерями
Размер потока : 106 Мбайт (5%)
Заголовок : MVO
Язык : Russian

Текст
Идентификатор : 3
Формат : UTF-8
Идентификатор кодека : S_TEXT/UTF8
Идентификатор кодека/Информация : UTF-8 Plain Text
Язык : English
















Поделиться:




реклама партнёра


Вернуться к началу
 Профиль Отправить личное сообщение  
 
   Похожие торренты   Автор   Торрент   Размер 
В этой теме нет новых непрочитанных сообщений. Сумеречная зона / The Twilight Zone / 1-3 сезоны 1-110 серии из 110 [ужасы, фантастика, фэнтези, триллер, детектив, 1985-1989] DVDRip-AVC, Mvo+Avo [СТС]

salma3

7 | 13

29.99 ГБ

В этой теме нет новых непрочитанных сообщений. Темная сила / Dark Power [Триллер, 2013] HDTVRip-AVC, Mvo

salma3

311 | 19

1.57 ГБ

В этой теме нет новых непрочитанных сообщений. Первая сила / The First Power [Триллер, ужасы, 1990] BDRip, Avo [Гаврилов]

salma3

37 | 0

1.46 ГБ

В этой теме нет новых непрочитанных сообщений. Зловещая сила / Grim [ужасы, фэнтези, триллер, 1995] DVDRip, Dvo [Рен тв]

salma3

12 | 8

1.37 ГБ

В этой теме нет новых непрочитанных сообщений. Темная сила / Dark Power [Триллер, 2013] HDTVRip 1080p, Mvo

salma3

71 | 10

3.68 ГБ

В этой теме нет новых непрочитанных сообщений. Темная сила / Dark Power [Триллер, 2013] HDTVRip 720p, Mvo

salma3

171 | 9

2.34 ГБ

В этой теме нет новых непрочитанных сообщений. Первая сила / The First Power [ужасы, триллер, криминал, 1990] BDRemux 1080p, Dvo+Avo+Sub

salma3

32 | 3

15.4 ГБ


Начать новую тему Ответить на тему  [ 1 сообщение ] 




Для Мосгорсуда, Роскомнадзора и рекламодателей:: mosgorsud-torrent[собачка]yandex.ru