Торрент файл
скачать торрент магнет ссылка Добавлен: 22 янв 2012, 14:35
Размер: 2.18 ГБ
Сидеров: 143
Личеров: 11
Автор

СообщениеДобавлено: 22 янв 2012, 14:35 

Не в сети
Супермодератор
Аватара пользователя
Дата регистрации:
11 апр 2010, 18:10
Спасибо: 5802 / 7
Сообщения: 56779
День сурка / Groundhog Day

Перевод: Профессиональный (многоголосый, закадровый)(Videoservis), cубтитры: Русские, Английские (полные, отключаемые)
Формат: HDRip, MKV, H.264, AC3
Страна: США
Режиссер: Харольд Рэмис
Жанр: фэнтези, комедия, мелодрама
Продолжительность: 01:41:04
Год выпуска: 1993
В ролях: Билл Мюррей, Энди МакДауэлл, Крис Эллиот, Стивен Тоболовски, Брайан Дойл-Мюррей, Марита Герати, Анджела Пэтон, Рик Дукомман, Рик Овертон, Робин Дьюк
Описание: Телевизионный комментатор Фил Коннорс каждый год приезжает в маленький городок в штате Пенсильвания на празднование Дня сурка. Но на этот раз веселье рискует зайти слишком далеко. Время сыграло с ним злую шутку: оно взяло да и остановилось.
Теперь на календаре Фила чернеет одна и та же дата-2 февраля, из которой он никак не может выбраться. Неунывающий ведущий пытается извлечь выгоду из своего комичного положения: впереди у него уйма времени и безмятежное предсказуемое будущее.
Отныне с ним не случится ничего плохого… и ничего хорошего. У Фила осталась одна заветная мечта, простая и незамысловатая-3 февраля…


Видео: 1280x696 (16:9), 23,976 fps, AVC (х264), High@L4.1 ~2700 kbps avg, 0.126
Аудио: 48 kHz, AC-3, 6 ch, ~384.00 kbps avg


Автор РИПа:
Знаете ли вы, что...

Во время съемок картины Билл Мюррэй получил производственную травму. Он был дважды укушен сурком.

Режиссер Харольд Рэмис планировал пригласить на исполнение главной роли Тома Хэнкса, но впоследствии признал, что Том «слишком хорош» для этой роли.

Фил Коннорс проживает 2 февраля 34 раза. На самом деле по сюжету подразумевается, что этих дней намного больше, но по ходу действия картины показывается именно 34 дня. Как признался впоследствии Харольд Рэмис, в оригинальном сценарии фигурировала цифра в 10,000 лет, но в конечном итоге продолжительность дня сурка составила около 10 лет.

Наиболее широко День Сурка отмечается в небольшом городке Панксутони (штат Пенсильвания) с населением всего 6,7 тыс. человек. О сроке наступления весны судят по сурку по кличке Фил, который в этот день впервые выходит из своей норы после зимней спячки. Если видна его тень, то зима продлится шесть недель, а если нет — то наступление весны уже близко.

Съемки картины велись не в Панксутони, а в городке Вудсток (штат Иллинойс). Между тем, Билл Мюррэй и Харольд Рэмис посещали настоящую церемонию лично за год до выхода картины, в 1992 году.

Релиз картины, собравшей в североамериканском прокате 70,9 млн. долларов, существенно повысил интерес зевак к Дню Сурка и соответствующей ему церемонии. В частности, в 1997 году на торжестве присутствовало 35 тысяч человек (в 5 раз больше численности самого городка).

В первой версии сценария подразумевалось, что Фил Коннорс застрял в Дне Сурка с первых кадров фильма. Позднее Харольд Рэмис решил переписать сценарий, чтобы зрителю было проще втянуться в сюжетные перипетии.

По первоначальному замыслу, злоключения Фила Коннорса начались из-за того, что его прокляла бывшая подружка, которую тот безжалостно бросил. Но по ходу доработки сценария такой сюжетный поворот был исключён.

Рэмис утверждал, что почти всякий раз, когда он пытался объяснить Мюррэю смысл сцены, тот перебивал его и спрашивал: «Ты мне только скажи — хороший Фил или плохой Фил?»

В процессе обучения фортепианному искусству Фил играет «Рапсодию на тему Паганини» Рахманинова. Эта романтическая тема также использована в другом фантастическом фильме, «Где-то во времени» (1980).
Первые робкие удары по клавишам во время самого первого урока Билл Мюррэй делает самостоятельно. Не владея нотной грамотой, он подобрал мелодию на слух.

Зажигательная песня «Метеоролог» («Weatherman»), обрамляющая фильм, сочинена совместно Харольдом Рэмисом и Джорджем Фентоном.

Съёмки сцены, в которой раздражённый Фил вдребезги разбивает будильник, прошли не так, как ожидалось: от удара Мюррэя часы едва треснули, так что съёмочной группе пришлось нанести завершающий удар молотком. Несмотря на это (и это вошло в фильм) петь они так и не перестали.

Песня, под которую Фил просыпается каждое утро 2 февраля - это «I Got You Babe» в исполнении дуэта «Сонни и Шер», популярный хит августа 1965 года.


Общее
Уникальный идентификатор : 209343161136905295402085256653921175368 (0x9D7E06B98A647FEBB7A314CBAA1DC74
Полное имя : f:\Downloads\groundhog_day_[tfile.ru].mkv
Формат : Matroska
Размер файла : 2,18 Гбайт
Продолжительность : 1 ч. 41 м.
Общий поток : 3083 Кбит/сек
Дата кодирования : UTC 2011-10-09 20:12:43
Программа кодирования : mkvmerge v4.6.0 ('Still Crazy After All These Years') сборка от Mar 10 2011 02:50:32
Библиотека кодирования : libebml v1.2.0 + libmatroska v1.1.0

Видео
Идентификатор : 1
Формат : AVC
Формат/Информация : Advanced Video Codec
Профиль формата : High@L4.1
Параметр CABAC формата : Да
Параметр ReFrames формата : 3 кадра
Параметры GOP формата : M=1, N=32
Режим смешивания : Header stripping
Идентификатор кодека : V_MPEG4/ISO/AVC
Продолжительность : 1 ч. 41 м.
Битрейт : 2700 Кбит/сек
Ширина : 1280 пикс.
Высота : 696 пикс.
Соотношение сторон : 16:9
Режим частоты кадров : Переменный
Частота кадров : 23,976 кадр/сек
Цветовое пространство : YUV
Подвыборка цветности : 4:2:0
Битовая глубина : 8 бит
Тип развёртки : Прогрессивная
Бит/(Пиксели*Кадры) : 0.126
Размер потока : 1,86 Гбайт (86%)
Библиотека кодирования : x264 core 116 r2019M 9cc407d
Настройки программы : cabac=1 / ref=3 / deblock=1:-1:-1 / analyse=0x3:0x133 / me=hex / subme=7 / psy=1 / psy_rd=1.00:0.15 / mixed_ref=1 / me_range=16 / chroma_me=1 / trellis=1 / 8x8dct=1 / cqm=0 / deadzone=21,11 / fast_pskip=1 / chroma_qp_offset=-3 / threads=8 / sliced_threads=0 / nr=0 / decimate=1 / interlaced=0 / bluray_compat=0 / constrained_intra=0 / bframes=3 / b_pyramid=1 / b_adapt=2 / b_bias=0 / direct=3 / weightb=1 / open_gop=0 / weightp=2 / keyint=230 / keyint_min=23 / scenecut=40 / intra_refresh=0 / rc_lookahead=40 / rc=abr / mbtree=1 / bitrate=2700 / ratetol=1.0 / qcomp=0.60 / qpmin=10 / qpmax=51 / qpstep=4 / vbv_maxrate=31250 / vbv_bufsize=31250 / nal_hrd=none / ip_ratio=1.40 / aq=1:1.00
Язык : English

Аудио
Идентификатор : 2
Формат : AC-3
Формат/Информация : Audio Coding 3
Расширение режима : CM (complete main)
Режим смешивания : Header stripping
Идентификатор кодека : A_AC3
Продолжительность : 1 ч. 41 м.
Вид битрейта : Постоянный
Битрейт : 384 Кбит/сек
Каналы : 6 каналов
Расположение каналов : Front: L C R, Side: L R, LFE
Частота : 48,0 КГц
Битовая глубина : 16 бит
Метод сжатия : С потерями
Размер потока : 278 Мбайт (12%)
Заголовок : MVO(Videoservis)
Язык : Russian

Текст #1
Идентификатор : 3
Формат : UTF-8
Идентификатор кодека : S_TEXT/UTF8
Идентификатор кодека/Информация : UTF-8 Plain Text
Заголовок : Igor Gindin
Язык : Russian

Текст #2
Идентификатор : 4
Формат : UTF-8
Идентификатор кодека : S_TEXT/UTF8
Идентификатор кодека/Информация : UTF-8 Plain Text
Язык : English














Поделиться:




реклама партнёра


Вернуться к началу
 Профиль Отправить личное сообщение  
 
   Похожие торренты   Автор   Торрент   Размер 
В этой теме нет новых непрочитанных сообщений. Орудия cмерти: Город костей / The Mоrtal Instruments: City of Bones (Харольд Цварт) [2013, фэнтези, приключения, драма, мелодрама, HDRip] DUB

Nickolas3435

290 | 11

1.52 ГБ

В этой теме нет новых непрочитанных сообщений. Парень с того света / My Boyfriend's Back [комедия, фэнтези, ужасы, мелодрама, 1993] HDRip, Dvo

salma3

120 | 16

1.46 ГБ

В этой теме нет новых непрочитанных сообщений. Аризонская мечта / Arizona Dream [фэнтези, драма, мелодрама, комедия, 1993] BDRip-AVC, Mvo

salma3

0 | 2

4.37 ГБ

В этой теме нет новых непрочитанных сообщений. Миссис Даутфайр / Mrs. Doubtfire [мелодрама, комедия, семейный, 1993] HDRip, Mvo

salma3

71 | 2

1.45 ГБ

В этой теме нет новых непрочитанных сообщений. Парень с того света / My Boyfriend's Back [Ужасы, фэнтези, мелодрама, комедия, 1993] BDRemux 1080p, Avo

salma3

14 | 8

18.09 ГБ

В этой теме нет новых непрочитанных сообщений. Парень с того света / My Boyfriend's Back [комедия, ужасы, фэнтези, мелодрама, 1993] BDRip 720p, Avo

salma3

18 | 9

7.46 ГБ

В этой теме нет новых непрочитанных сообщений. Китайская камасутра / Chinese Kamasutra [Фэнтези, Мелодрама, Эротика, 1993] DVDRip, Dvo

salma3

0 | 0

744 МБ


Начать новую тему Ответить на тему  [ 1 сообщение ] 




Для Мосгорсуда, Роскомнадзора и рекламодателей:: mosgorsud-torrent[собачка]yandex.ru