Торрент файл
скачать торрент магнет ссылка Добавлен: 22 янв 2012, 14:34
Размер: 1.37 ГБ
Сидеров: 61
Личеров: 9
Автор

СообщениеДобавлено: 22 янв 2012, 14:34 

Не в сети
Супермодератор
Аватара пользователя
Дата регистрации:
11 апр 2010, 18:10
Спасибо: 5960 / 7
Сообщения: 56765
[b]Первый мститель / Captain America: The First Avenger[/b]

Перевод: Профессиональный (полное дублирование)[Звук с TS], cубтитры: отсутствуют

Формат: DVDRip, AVI, XviD, AC3

Страна: США

Режиссер: Джо Джонстон

Жанр: фантастика, боевик, приключения

Продолжительность: 02:04:09

Год выпуска: 2011

В ролях: Крис Эванс, Хейли Этвелл, Себастиан Стэн, Томми Ли Джонс, Хьюго Уивинг, Доминик Купер, Ричард Армитэдж, Стенли Туччи, Сэмюэл Л. Джексон, Тоби Джонс

Описание: Стив Роджерс добровольно соглашается принять участие в эксперименте, который превратит его в супер солдата, известного как Первый мститель. Роджерс вступает в вооруженные силы США вместе с Баки Барнсом и Пегги Картер, чтобы бороться с враждебной организацией ГИДРА, которой управляет безжалостный Красный Череп.

[/field]

Видео: 640x272 (2.35:1), 23.976 fps, XviD MPEG-4 ~1115 kbps avg, 0.27 bit/pixel

Аудио #1: Русский: 48 kHz, AC3 Dolby Digital, 2/0 (L,R) ch, ~192 kbps [Профессиональный (полное дублирование)]
Аудио #2: Английский: 48 kHz, AC3 Dolby Digital, 3/2 (L,C,R,l,r) + LFE ch, ~256 kbps [Оригинал]

Доп. информация: Премьера (РФ) 28 июля 2011, «Централ Партнершип»

General
Complete name: E:\kapitan_amerika_[tfile.ru].avi
Format: AVI
Format/Info: Audio Video Interleave
File size: 1.37 GiB
Duration: 2h 4mn
Overall bit rate: 1 578 Kbps
Writing application: VirtualDubMod 1.5.10.3 | (build 2550/release)
Writing library: VirtualDubMod build 2550/release

Video
ID: 0
Format: MPEG-4 Visual
Format profile: Advanced Simple@L5
Format settings, BVOP: 2
Format settings, QPel: No
Format settings, GMC: No warppoints
Format settings, Matrix: Default (H.263)
Muxing mode: Packed bitstream
Codec ID: XVID
Codec ID/Hint: XviD
Duration: 2h 4mn
Bit rate: 1 116 Kbps
Width: 640 pixels
Height: 272 pixels
Display aspect ratio: 2.35:1
Frame rate: 23.976 fps
Color space: YUV
Chroma subsampling: 4:2:0
Bit depth: 8 bits
Scan type: Progressive
Compression mode: Lossy
Bits/(Pixel*Frame): 0.267
Stream size: 991 MiB (71%)
Writing library: XviD 1.2.1 (UTC 2008-12-04)

Audio #1
ID: 1
Format: AC-3
Format/Info: Audio Coding 3
Mode extension: CM (complete main)
Codec ID: 2000
Duration: 2h 4mn
Bit rate mode: Constant
Bit rate: 192 Kbps
Channel(s): 2 channels
Channel positions: Front: L R
Sampling rate: 48.0 KHz
Bit depth: 16 bits
Compression mode: Lossy
Delay relative to video: 2s 900ms
Stream size: 171 MiB (12%)
Alignment: Split accross interleaves
Interleave, duration: 42 ms (1.00 video frame)
Interleave, preload duration: 500 ms

Audio #2
ID: 2
Format: AC-3
Format/Info: Audio Coding 3
Mode extension: CM (complete main)
Codec ID: 2000
Duration: 2h 4mn
Bit rate mode: Constant
Bit rate: 256 Kbps
Channel(s): 6 channels
Channel positions: Front: L C R, Side: L R, LFE
Sampling rate: 48.0 KHz
Bit depth: 16 bits
Compression mode: Lossy
Stream size: 227 MiB (16%)
Alignment: Split accross interleaves
Interleave, duration: 42 ms (1.00 video frame)
Interleave, preload duration: 500 ms









Поделиться:




реклама партнёра


Вернуться к началу
 Профиль Отправить личное сообщение  
 
   Похожие торренты   Автор   Торрент   Размер 
В этой теме нет новых непрочитанных сообщений. Первый мститель: Противостояние / Captain America: Civil War [фантастика, боевик, приключения, 2016] BDRip-AVC, Dub

salma3

162 | 25

2.82 ГБ

В этой теме нет новых непрочитанных сообщений. Первый мститель: Противостояние / Captain America: Civil War [фантастика, боевик, приключения, 2016] BDRip-AVC, Dub

salma3

31 | 18

2.18 ГБ

В этой теме нет новых непрочитанных сообщений. Первый мститель: Противостояние / Captain America: Civil War [фантастика, боевик, приключения, 2016] HDRip, Avo+Sub Гаврилов]

salma3

58 | 15

2.14 ГБ

В этой теме нет новых непрочитанных сообщений. Первый мститель: Противостояние / Captain America: Civil War [Фантастика, боевик, приключения, 2016] DVD9, Dub [Custom]

salma3

40 | 22

7.23 ГБ

В этой теме нет новых непрочитанных сообщений. Первый мститель: Противостояние / Captain America: Civil War [Фантастика, боевик, приключения, 2016] BDRemux 1080p, Dub [iTunes]

marya111

0 | 0

29.8 ГБ

В этой теме нет новых непрочитанных сообщений. Первый мститель: Противостояние / Captain America: Civil War [фантастика, боевик, приключения, 2016] HDRip, Dub [чистый звук]

salma3

2243 | 39

1.37 ГБ

В этой теме нет новых непрочитанных сообщений. Первый мститель: Противостояние / Captain America: Civil War [фантастика, боевик, приключения, 2016] HDRip, Dub [чистый звук]

salma3

792 | 11

2.05 ГБ


Начать новую тему Ответить на тему  [ 1 сообщение ] 




Для Мосгорсуда, Роскомнадзора и рекламодателей:: mosgorsud-torrent[собачка]yandex.ru