Торрент файл
скачать торрент магнет ссылка Добавлен: 22 янв 2012, 14:34
Размер: 2.1 ГБ
Сидеров: 51
Личеров: 8
Автор

СообщениеДобавлено: 22 янв 2012, 14:34 

Не в сети
Супермодератор
Аватара пользователя
Дата регистрации:
11 апр 2010, 18:10
Спасибо: 5801 / 7
Сообщения: 56779
Ослепленный желаниями/ Bedazzled



Перевод: Профессиональный (полное дублирование),субтитры: отсутствуют
Формат: DVDRip-AVC, MKV, H.264, AC3
Страна: США, Германия
Жанр: фэнтези, мелодрама, комедия
Продолжительность: 01:29:00
Режиссер: Харольд Рэмис / Harold Ramis
Год выпуска: 2000

В ролях: Брендан Фрейзер, Элизабет Херли, Фрэнсис О’Коннор, Мириам Шор, Орландо Джонс, Пол Адельштейн, Тоби Хасс, Гэбриел Коссес, Брайан Дойл-Мюррей, Джефф Дусетте

Описание:Дьявол еще никогда не был таким соблазнительным. В этот раз он принимает обличие распутной красотки, заставляющий любого мужчину броситься в объятия безумства. Неудачник-программист — лучший объект для вербовки.

Объект продажи — бессмертная душа. Цена — 7 желаний. Но в этой жизни бесплатным бывает лишь сыр в мышеловке, каждая медаль имеет две стороны. Выполняя любое желание продажной души, дьявол не дает насладиться результатом. В мгновение ока жизнь программиста превращается в настоящий ад.


________

Видео: 960 x 408 (2:35:1),25,000 кадр/сек, AVC (х264), High@L3.0, ~ 2981 Kbps, 0.304 bit/pixel
Аудио: 48 kHz, AC3 Dolby Digital, 3/2 (L,C,R,l,r) + LFE ch, ~384 kbps


Автор РИПа:ddimmon22
Общее
Уникальный идентификатор: 180021106082271165375771580164197654855 (0x876ECDCB3F46A37E9004AAE532592147)
Полное имя: I:\oktzbr rupu\oslep_gelan_[tfile.ru].mkv
Формат: Matroska
Версия формата: Version 2
Размер файла: 2,10 Гбайт
Продолжительность: 1 ч. 29 м.
Общий поток: 3366 Кбит/сек
Дата кодирования: UTC 2011-10-14 20:39:37
Программа кодирования: mkvmerge v4.9.1 ('Ich will') сборка от Aug 10 2011 09:31:20
Библиотека кодирования: libebml v1.2.1 + libmatroska v1.2.0

Видео
Идентификатор: 1
Формат: AVC
Формат/Информация: Advanced Video Codec
Профиль формата: High@L3.0
Параметр CABAC формата: Да
Параметр ReFrames формата: 4 кадра
Идентификатор кодека: V_MPEG4/ISO/AVC
Продолжительность: 1 ч. 29 м.
Битрейт: 2981 Кбит/сек
Ширина: 960 пикс.
Высота: 408 пикс.
Соотношение сторон: 2,35:1
Частота кадров: 25,000 кадр/сек
Цветовое пространство: YUV
Подвыборка цветности: 4:2:0
Битовая глубина: 8 бит
Тип развёртки: Прогрессивная
Бит/(Пиксели*Кадры): 0.304
Размер потока: 1,82 Гбайт (87%)
Библиотека кодирования: x264 core 116 r2074 2641b9e
Настройки программы: cabac=1 / ref=3 / deblock=1:0:0 / analyse=0x3:0x113 / me=hex / subme=7 / psy=1 / psy_rd=1.00:0.00 / mixed_ref=1 / me_range=16 / chroma_me=1 / trellis=1 / 8x8dct=1 / cqm=0 / deadzone=21,11 / fast_pskip=1 / chroma_qp_offset=-2 / threads=6 / sliced_threads=0 / nr=0 / decimate=1 / interlaced=0 / bluray_compat=0 / constrained_intra=0 / bframes=3 / b_pyramid=2 / b_adapt=1 / b_bias=0 / direct=1 / weightb=1 / open_gop=0 / weightp=2 / keyint=250 / keyint_min=25 / scenecut=40 / intra_refresh=0 / rc_lookahead=40 / rc=2pass / mbtree=1 / bitrate=2981 / ratetol=1.0 / qcomp=0.60 / qpmin=0 / qpmax=69 / qpstep=4 / cplxblur=20.0 / qblur=0.5 / ip_ratio=1.40 / aq=1:1.00

Аудио
Идентификатор: 2
Формат: AC-3
Формат/Информация: Audio Coding 3
Расширение режима: CM (complete main)
Идентификатор кодека: A_AC3
Продолжительность: 1 ч. 29 м.
Вид битрейта: Постоянный
Битрейт: 384 Кбит/сек
Каналы: 6 каналов
Расположение каналов: Front: L C R, Side: L R, LFE
Частота: 48,0 КГц
Битовая глубина: 16 бит
Метод сжатия: С потерями
Размер потока: 246 Мбайт (11%)













Поделиться:




реклама партнёра


Вернуться к началу
 Профиль Отправить личное сообщение  
 
   Похожие торренты   Автор   Торрент   Размер 
В этой теме нет новых непрочитанных сообщений. Харольд здесь / Her er Harold (Гуннар Викене) [2014, Комедия, драма, DVDRip] avo

Dracon

166 | 29

1.61 ГБ

В этой теме нет новых непрочитанных сообщений. Харольд здесь / Her er Harold (Гуннар Викене / Gunnar Vikene) [2014г., Норвегия, комедия, драма, DVDRip] Sub

Alfredovich

9 | 0

1.54 ГБ

В этой теме нет новых непрочитанных сообщений. Орудия cмерти: Город костей / The Mоrtal Instruments: City of Bones (Харольд Цварт) [2013, фэнтези, приключения, драма, мелодрама, HDRip] DUB

Nickolas3435

290 | 11

1.52 ГБ

В этой теме нет новых непрочитанных сообщений. Дракула 2000 / Dracula 2000 [ужасы, фэнтези, боевик, триллер, 2000] BDRip 720p, Dub+Sub

salma3

101 | 8

3.83 ГБ

В этой теме нет новых непрочитанных сообщений. Дракула 2000 / Dracula 2000 [ужасы, фэнтези, боевик, триллер, 2000] BDRip 1080p, Dub+Sub

salma3

54 | 14

9.81 ГБ

В этой теме нет новых непрочитанных сообщений. Про Адама / About Adam [мелодрама, комедия, 2000] DVDRip, Mvo

salma3

79 | 2

1.36 ГБ

В этой теме нет новых непрочитанных сообщений. Проигравший / Whipped [мелодрама, комедия, 2000] DVDRip, Dvo [REN-TV]

salma3

122 | 5

744.62 МБ


Начать новую тему Ответить на тему  [ 1 сообщение ] 




Для Мосгорсуда, Роскомнадзора и рекламодателей:: mosgorsud-torrent[собачка]yandex.ru