Торрент файл
скачать торрент магнет ссылка Добавлен: 22 янв 2012, 14:33
Размер: 2.1 ГБ
Сидеров: 25
Личеров: 6
Автор

СообщениеДобавлено: 22 янв 2012, 14:33 

Не в сети
Супермодератор
Аватара пользователя
Дата регистрации:
11 апр 2010, 18:10
Спасибо: 5801 / 7
Сообщения: 56779
Женщина-кошка /Catwoman



Перевод: Профессиональный (полное дублирование),субтитры: отсутствуют
Формат: DVDRip-AVC, MKV, H.264, AC3
Страна: США, Австралия
Жанр: фэнтези, боевик, криминал
Продолжительность: 01:40:00
Режиссер: Питоф / Pitof
Год выпуска: 2004

В ролях: Холли Берри, Бенджамин Брэтт, Шэрон Стоун, Ламбер Вильсон, Фрэнсис Конрой, Алекс Борштейн, Майкл Масси, Байрон Манн, Ким Смит, Кристофер Хейердал

Описание:Пейшинс Филипс работает дизайнером в крупной косметической компании, которая готовится выпустить на рынок новый продукт, замедляющий старение. Но у этой революционной новинки есть существенный недостаток, который компания тщательно скрывает и о котором случайно узнает Пэйшинс. Дальнейшие события меняют ее жизнь самым невероятным образом…

________

Видео: 896 x 368 (2:40:1),25,000 кадр/сек, AVC (х264), High@L3.0, ~2619 Kbps, 0.318 bit/pixel
Аудио: 48 kHz, AC3 Dolby Digital, 3/2 (L,C,R,l,r) + LFE ch, ~384 kbps


Автор РИПа:ddimmon22
Общее
Уникальный идентификатор: 176344281339115780919507448344940158646 (0x84AAAC5686093D34B860DD5BC8809EB6)
Полное имя: I:\oktzbr rupu\catwoman_[tfile.ru].mkv
Формат: Matroska
Версия формата: Version 2
Размер файла: 2,10 Гбайт
Продолжительность: 1 ч. 40 м.
Общий поток: 3003 Кбит/сек
Дата кодирования: UTC 2011-10-16 08:56:16
Программа кодирования: mkvmerge v4.9.1 ('Ich will') сборка от Aug 10 2011 09:31:20
Библиотека кодирования: libebml v1.2.1 + libmatroska v1.2.0

Видео
Идентификатор: 1
Формат: AVC
Формат/Информация: Advanced Video Codec
Профиль формата: High@L3.0
Параметр CABAC формата: Да
Параметр ReFrames формата: 5 кадров
Идентификатор кодека: V_MPEG4/ISO/AVC
Продолжительность: 1 ч. 40 м.
Битрейт: 2619 Кбит/сек
Ширина: 896 пикс.
Высота: 368 пикс.
Соотношение сторон: 2,40:1
Частота кадров: 25,000 кадр/сек
Цветовое пространство: YUV
Подвыборка цветности: 4:2:0
Битовая глубина: 8 бит
Тип развёртки: Прогрессивная
Бит/(Пиксели*Кадры): 0.318
Размер потока: 1,79 Гбайт (85%)
Библиотека кодирования: x264 core 116 r2074 2641b9e
Настройки программы: cabac=1 / ref=5 / deblock=1:-1:-1 / analyse=0x3:0x113 / me=umh / subme=8 / psy=1 / psy_rd=1.00:0.10 / mixed_ref=1 / me_range=16 / chroma_me=1 / trellis=1 / 8x8dct=1 / cqm=0 / deadzone=21,11 / fast_pskip=1 / chroma_qp_offset=-3 / threads=12 / sliced_threads=0 / nr=0 / decimate=1 / interlaced=0 / bluray_compat=0 / constrained_intra=0 / bframes=3 / b_pyramid=2 / b_adapt=2 / b_bias=0 / direct=3 / weightb=1 / open_gop=0 / weightp=2 / keyint=250 / keyint_min=25 / scenecut=40 / intra_refresh=0 / rc_lookahead=50 / rc=2pass / mbtree=1 / bitrate=2619 / ratetol=1.0 / qcomp=0.60 / qpmin=0 / qpmax=69 / qpstep=4 / cplxblur=20.0 / qblur=0.5 / ip_ratio=1.40 / aq=1:1.00

Аудио
Идентификатор: 2
Формат: AC-3
Формат/Информация: Audio Coding 3
Расширение режима: CM (complete main)
Идентификатор кодека: A_AC3
Продолжительность: 1 ч. 40 м.
Вид битрейта: Постоянный
Битрейт: 384 Кбит/сек
Каналы: 6 каналов
Расположение каналов: Front: L C R, Side: L R, LFE
Частота: 48,0 КГц
Битовая глубина: 16 бит
Метод сжатия: С потерями
Размер потока: 275 Мбайт (13%)












Поделиться:




реклама партнёра


Вернуться к началу
 Профиль Отправить личное сообщение  
 
   Похожие торренты   Автор   Торрент   Размер 
В этой теме нет новых непрочитанных сообщений. Женщина-кошка / Catwoman [фэнтези, боевик, 2004] BDRip 720p,, Dub+Sub

salma3

16 | 3

4.37 ГБ

В этой теме нет новых непрочитанных сообщений. Женщина в камере №9 / Frauen fur Zellenblock 9 [ужасы, боевик, драма, криминал, 1978] DVDRip, Avo

salma3

6 | 8

1.24 ГБ

В этой теме нет новых непрочитанных сообщений. Женщина-пистолет / Gun Woman [фэнтези, боевик, 2014] BDRip, Avo

salma3

499 | 12

1.37 ГБ

В этой теме нет новых непрочитанных сообщений. Экс-женщина моей жизни / L'ex-femme de ma vie [Драма, комедия, 2004] DVDRip, Mvo

salma3

14 | 2

1.45 ГБ

В этой теме нет новых непрочитанных сообщений. Женщина-ящерица / Tuk kae phii / Lizard Woman [ужасы, триллер, 2004] DVDRip, Dvo

salma3

8 | 3

1.46 ГБ

В этой теме нет новых непрочитанных сообщений. Чудо-Женщина / Wonder Woman [Фантастика, фэнтези, боевик, приключения, 2017] WEBRip 1080p, Dub [Трейлер]

salma3

198 | 9

355.91 МБ

В этой теме нет новых непрочитанных сообщений. Разборки в стиле Кунг-фу / Kung Fu Hustle [Боевик, фэнтези, комедия, криминал, 2004] BDRip 720p, Dub+Mvo+Sub

salma3

33 | 3

4.37 ГБ


Начать новую тему Ответить на тему  [ 1 сообщение ] 




Для Мосгорсуда, Роскомнадзора и рекламодателей:: mosgorsud-torrent[собачка]yandex.ru