Торрент файл
скачать торрент магнет ссылка Добавлен: 22 янв 2012, 14:33
Размер: 2 ГБ
Сидеров: 59
Личеров: 9
Автор

СообщениеДобавлено: 22 янв 2012, 14:33 

Не в сети
Супермодератор
Аватара пользователя
Дата регистрации:
11 апр 2010, 18:10
Спасибо: 5802 / 7
Сообщения: 56779
Город ведьм / Witchville



Перевод: Профессиональный (многоголосый закадровый),субтитры: отсутствуют
Формат: HDRip-AVC, MKV, H.264, AC3
Страна: США
Жанр: фэнтези
Продолжительность: 01:29:00
Режиссер: Тео Пирри / Pearry Reginald Teo
Год выпуска: 2010

В ролях: Люк Госс, Эдвард Спелирс, Эндрю Плевин, Саймон Торп, Сара Дуглас, МайАнна Бёринг, Йен Вирго Ава, Лин Кох, Йен Рид, Уильям Соммерс

Описание:1487 год. Инквизитор Генрих Крамер заканчивает работу над «Молотом ведьм» — книгой, которой суждено стать самым известным средневековым трактатом по демонологии. Одни считают теолога верным слугой церкви, другие — кровожадным шарлатаном.

Сам же он, не считаясь с мнением толпы, отправляется вершить Божий суд в городок Вальдерштадт, где ему предстоит сразиться с Красной королевой. Миссия Крамера — истребить зло, цель колдуньи — заполучить «Молот ведьм». Смертельная битва начинается!


____

Видео: 1280 x 720 (1:77:7),23,976 кадр/сек, AVC (х264), High@L3.1, ~2938 Kbps, 0.133 bit/pixel
Аудио: 48 kHz, AC3 Dolby Digital, 3/2 (L,C,R,l,r) + LFE ch, ~256 kbps


Автор РИПа:ddimmon22
Общее
Уникальный идентификатор: 201235343692847045199137053690511391477 (0x97648476354045E98764607EC9F27AF5)
Полное имя: I:\oktzbr rupu\witchville_[tfile.ru].mkv
Формат: Matroska
Версия формата: Version 2
Размер файла: 2,00 Гбайт
Продолжительность: 1 ч. 29 м.
Общий поток: 3194 Кбит/сек
Дата кодирования: UTC 2011-10-18 01:20:05
Программа кодирования: mkvmerge v4.9.1 ('Ich will') сборка от Aug 10 2011 09:31:20
Библиотека кодирования: libebml v1.2.1 + libmatroska v1.2.0

Видео
Идентификатор: 1
Формат: AVC
Формат/Информация: Advanced Video Codec
Профиль формата: High@L3.1
Параметр CABAC формата: Да
Параметр ReFrames формата: 4 кадра
Идентификатор кодека: V_MPEG4/ISO/AVC
Продолжительность: 1 ч. 29 м.
Битрейт: 2938 Кбит/сек
Ширина: 1280 пикс.
Высота: 720 пикс.
Соотношение сторон: 16:9
Частота кадров: 23,976 кадр/сек
Цветовое пространство: YUV
Подвыборка цветности: 4:2:0
Битовая глубина: 8 бит
Тип развёртки: Прогрессивная
Бит/(Пиксели*Кадры): 0.133
Размер потока: 1,80 Гбайт (90%)
Библиотека кодирования: x264 core 116 r2074 2641b9e
Настройки программы: cabac=1 / ref=3 / deblock=1:0:0 / analyse=0x3:0x113 / me=hex / subme=7 / psy=1 / psy_rd=1.00:0.00 / mixed_ref=1 / me_range=16 / chroma_me=1 / trellis=1 / 8x8dct=1 / cqm=0 / deadzone=21,11 / fast_pskip=1 / chroma_qp_offset=-2 / threads=6 / sliced_threads=0 / nr=0 / decimate=1 / interlaced=0 / bluray_compat=0 / constrained_intra=0 / bframes=3 / b_pyramid=2 / b_adapt=1 / b_bias=0 / direct=1 / weightb=1 / open_gop=0 / weightp=2 / keyint=250 / keyint_min=23 / scenecut=40 / intra_refresh=0 / rc_lookahead=40 / rc=2pass / mbtree=1 / bitrate=2938 / ratetol=1.0 / qcomp=0.60 / qpmin=0 / qpmax=69 / qpstep=4 / cplxblur=20.0 / qblur=0.5 / ip_ratio=1.40 / aq=1:1.00

Аудио
Идентификатор: 2
Формат: AC-3
Формат/Информация: Audio Coding 3
Расширение режима: CM (complete main)
Идентификатор кодека: A_AC3
Продолжительность: 1 ч. 29 м.
Вид битрейта: Постоянный
Битрейт: 256 Кбит/сек
Каналы: 6 каналов
Расположение каналов: Front: L C R, Side: L R, LFE
Частота: 48,0 КГц
Битовая глубина: 16 бит
Метод сжатия: С потерями
Размер потока: 164 Мбайт (8%)













Поделиться:




реклама партнёра


Вернуться к началу
 Профиль Отправить личное сообщение  
 
   Похожие торренты   Автор   Торрент   Размер 
В этой теме нет новых непрочитанных сообщений. Дракула: Тёмный принц / Dracula: The Dark Prince (Тео Пирри) [Фэнтези, 2013] HDRip, avo

Dracon

12 | 4

1.35 ГБ

В этой теме нет новых непрочитанных сообщений. Последний охотник на ведьм / The Last Witch Hunter [фэнтези, боевик, приключения, 2015] HDRip, Dub [iTunes]

Dracon

235 | 5

2.05 ГБ

В этой теме нет новых непрочитанных сообщений. Последний охотник на ведьм / The Last Witch Hunter [фэнтези, боевик, приключения, 2015] HDRip, Dub [iTunes]

Dracon

1400 | 33

1.37 ГБ

В этой теме нет новых непрочитанных сообщений. Темный принц / Dracula: The Dark Prince (Тео Пирри) [Фэнтези, 2013] BDRip 720p, avo

Dracon

68 | 7

4.51 ГБ

В этой теме нет новых непрочитанных сообщений. Темный принц / Dracula: The Dark Prince (Тео Пирри) [Фэнтези, 2013] BDRip 1080p, avo

Dracon

12 | 4

8.85 ГБ

В этой теме нет новых непрочитанных сообщений. Огненный город: Последние дни / Fire City: End of Days [ужасы, фэнтези, триллер, 2015] HDRip, Avo

salma3

140 | 2

1.4 ГБ

В этой теме нет новых непрочитанных сообщений. Орудия cмерти: Город костей / The Mоrtal Instruments: City of Bones (Харольд Цварт) [2013, фэнтези, приключения, драма, мелодрама, HDRip] DUB

Nickolas3435

290 | 11

1.52 ГБ


Начать новую тему Ответить на тему  [ 1 сообщение ] 




Для Мосгорсуда, Роскомнадзора и рекламодателей:: mosgorsud-torrent[собачка]yandex.ru