Торрент файл
скачать торрент магнет ссылка Добавлен: 22 янв 2012, 14:30
Размер: 2.12 ГБ
Сидеров: 212
Личеров: 14
Автор

СообщениеДобавлено: 22 янв 2012, 14:30 

Не в сети
Супермодератор
Аватара пользователя
Дата регистрации:
11 апр 2010, 18:10
Спасибо: 5799 / 7
Сообщения: 56779
Гарри Поттер и Дары смерти: Часть II / Harry Potter and the Deathly Hallows: Part 2

Перевод: Профессиональный (полное дублирование), cубтитры: русские, английские
Формат: HDRip-AVC, MKV, H.264, AC3
Страна: США, Великобритания
Режиссер: Дэвид Йэтс
Жанр: фэнтези, драма, детектив, приключения
Продолжительность: 02:10:26
Год выпуска: 2011

В ролях: Дэниэл Рэдклифф, Руперт Гринт, Эмма Уотсон, Рэйф Файнс, Алан Рикман, Хелена Бонем Картер, Том Фелтон, Гари Олдман, Майкл Гэмбон, Мэгги Смит

Описание: В грандиозной последней главе битва между добрыми и злыми силами мира волшебников перерастает во всеобщую войну. Ставки ещё никогда не были так высоки, а поиск убежища — столь сложен. И быть может именно Гарри Поттеру придется пожертвовать всем в финальном сражении с Волан-де-Мортом. Способен ли наш герой спасти мир? И всё закончится здесь.



Видео: 1056x448, 23,976 fps, AVC(x264), High@L4.1 ~1489 kbps, 0.131 bit/pixel
Аудио #1:Русский: 48 kHz, AC3 Dolby Digital, 3/2 (L,C,R,l,r) + LFE ch, ~384 kbps [Профессиональный (полное дублирование)]
Аудио #2:Английский: 48 kHz, AC3 Dolby Digital, 3/2 (L,C,R,l,r) + LFE ch, ~448 kbps [Оригинал]

Доп. информация: Бюджет $125 000 000, сборы в мире $1 327 678 231.

СЭМПЛ

Общее
Уникальный идентификатор: 231700165267765271988981168419935044713 (0xAE4FD421CECBD341B81CD1AEC55F4469)
Полное имя: D:\Релизы\Potter_Deathly_Hallows_2_[tfile.ru].mkv
Формат: Matroska
Размер файла: 2,12 Гбайт
Продолжительность: 2 ч. 10 м.
Общий поток: 2323 Кбит/сек
Дата кодирования: UTC 2011-10-29 08:33:09
Программа кодирования: mkvmerge v4.9.1 ('Ich will') built on Jul 11 2011 23:53:15
Библиотека кодирования: libebml v1.2.1 + libmatroska v1.1.1

Видео
Идентификатор: 1
Формат: AVC
Формат/Информация: Advanced Video Codec
Профиль формата: High@L4.1
Параметр CABAC формата: Да
Параметр ReFrames формата: 10 кадров
Идентификатор кодека: V_MPEG4/ISO/AVC
Продолжительность: 2 ч. 10 м.
Битрейт: 1489 Кбит/сек
Ширина: 1056 пикс.
Высота: 448 пикс.
Соотношение сторон: 2,35:1
Частота кадров: 23,976 кадр/сек
Цветовое пространство: YUV
Подвыборка цветности: 4:2:0
Битовая глубина: 8 бит
Тип развёртки: Прогрессивная
Бит/(Пиксели*Кадры): 0.131
Размер потока: 1,32 Гбайт (62%)
Заголовок: RG 25 Kadr
Библиотека кодирования: x264 core 116 r2074 2641b9e
Настройки программы: cabac=1 / ref=10 / deblock=1:-2:-1 / analyse=0x3:0x113 / me=umh / subme=9 / psy=1 / psy_rd=1.00:0.00 / mixed_ref=1 / me_range=32 / chroma_me=1 / trellis=2 / 8x8dct=1 / cqm=0 / deadzone=21,11 / fast_pskip=0 / chroma_qp_offset=-2 / threads=6 / sliced_threads=0 / nr=0 / decimate=0 / interlaced=0 / bluray_compat=0 / constrained_intra=0 / bframes=8 / b_pyramid=2 / b_adapt=1 / b_bias=0 / direct=1 / weightb=1 / open_gop=0 / weightp=2 / keyint=250 / keyint_min=23 / scenecut=40 / intra_refresh=0 / rc_lookahead=50 / rc=2pass / mbtree=1 / bitrate=1489 / ratetol=1.0 / qcomp=0.70 / qpmin=10 / qpmax=51 / qpstep=4 / cplxblur=20.0 / qblur=0.5 / ip_ratio=1.40 / aq=2:1.00
Язык: English

Аудио #1
Идентификатор: 2
Формат: AC-3
Формат/Информация: Audio Coding 3
Расширение режима: CM (complete main)
Идентификатор кодека: A_AC3
Продолжительность: 2 ч. 10 м.
Вид битрейта: Постоянный
Битрейт: 384 Кбит/сек
Каналы: 6 каналов
Расположение каналов: Front: L C R, Side: L R, LFE
Частота: 48,0 КГц
Битовая глубина: 16 бит
Метод сжатия: С потерями
Размер потока: 358 Мбайт (17%)
Заголовок: Rus
Язык: Russian

Аудио #2
Идентификатор: 3
Формат: AC-3
Формат/Информация: Audio Coding 3
Расширение режима: CM (complete main)
Идентификатор кодека: A_AC3
Продолжительность: 2 ч. 10 м.
Вид битрейта: Постоянный
Битрейт: 448 Кбит/сек
Каналы: 6 каналов
Расположение каналов: Front: L C R, Side: L R, LFE
Частота: 48,0 КГц
Битовая глубина: 16 бит
Метод сжатия: С потерями
Размер потока: 418 Мбайт (19%)
Заголовок: Orig
Язык: English

Текст #1
Идентификатор: 4
Формат: UTF-8
Идентификатор кодека: S_TEXT/UTF8
Идентификатор кодека/Информация: UTF-8 Plain Text
Заголовок: Rus
Язык: Russian

Текст #2
Идентификатор: 5
Формат: UTF-8
Идентификатор кодека: S_TEXT/UTF8
Идентификатор кодека/Информация: UTF-8 Plain Text
Заголовок: Eng
Язык: English









Поделиться:




реклама партнёра


Вернуться к началу
 Профиль Отправить личное сообщение  
 
   Похожие торренты   Автор   Торрент   Размер 
В этой теме нет новых непрочитанных сообщений. Поглощён Тарзан. Легенда / The Legend of Tarzan (Дэвид Йэтс) [2016, Боевик, приключения, HDRip | iTunes] Dub Данный торрент является блокированным, причина: поглощённый торрент

marya111

651 | 74

2.05 ГБ

В этой теме нет новых непрочитанных сообщений. Атлант расправил плечи: Часть 3 / Atlas Shrugged: Part III (Джеймс Манера) [Фантастика, драма, детектив, 2014] HDRip, dvo

Dracon

5 | 1

1.45 ГБ

В этой теме нет новых непрочитанных сообщений. Да / Yes (Салли Поттер / Sally Potter) [2004г., Великобритания, драма, мелодрама, DVDRip] MVO

Alfredovich

8 | 0

1.45 ГБ

В этой теме нет новых непрочитанных сообщений. Мисс Поттер / Miss Potter [драма, биография, 2006] BDRip 720p, Dub+Sub

salma3

21 | 2

3.18 ГБ

В этой теме нет новых непрочитанных сообщений. Голодные игры: Сойка-пересмешница. Часть II / The Hunger Games: Mockingjay - Part 2 [фантастика, приключения, 2015] HDRip, Dub [Чистый звук]

salma3

3223 | 98

2.06 ГБ

В этой теме нет новых непрочитанных сообщений. Голодные игры: Сойка-пересмешница. Часть II / The Hunger Games: Mockingjay - Part 2 [фантастика, приключения, 2015] HDRip, Dub [чистый звук]

salma3

27 | 1

1.37 ГБ

В этой теме нет новых непрочитанных сообщений. Голодные игры: Сойка-пересмешница. Часть I / The Hunger Games: Mockingjay - Part 1 (Френсис Лоуренс) [Фантастика, Приключения, 2014] HDRip, Dub [iTunes]

Dracon

28 | 2

1.46 ГБ


Начать новую тему Ответить на тему  [ 1 сообщение ] 




Для Мосгорсуда, Роскомнадзора и рекламодателей:: mosgorsud-torrent[собачка]yandex.ru