Торрент файл
скачать торрент магнет ссылка Добавлен: 22 янв 2012, 14:27
Размер: 1.45 ГБ
Сидеров: 116
Личеров: 8
Автор

СообщениеДобавлено: 22 янв 2012, 14:27 

Не в сети
Супермодератор
Аватара пользователя
Дата регистрации:
11 апр 2010, 18:10
Спасибо: 5801 / 7
Сообщения: 56779
Темный город / Dark City


Перевод: Профессиональный (многоголосый, закадровый), cубтитры: отсутствуют
Формат: HDRip-AVC, MKV, H.264, AC3
Страна: США, Австралия
Режиссер: Алекс Пройас
Жанр: фантастика, триллер, детектив
Продолжительность: 01:51:43
Год выпуска: 1998

В ролях: Руфус Сьюэлл, Уильям Хёрт, Кифер Сазерленд, Дженнифер Коннелли, Ричард О’Брайэн, Иэн Ричардсон, Брюс Спенс, Колин Фрилз, Джон Блузал, Митчел Бутел

Описание: В темном городе никогда не бывает солнечного света, его жители засыпают всегда в одно и то же время, а город в это время изменяет свой облик: дома меняют архитектуру, вырастают из-под земли и передвигаются.
Джон Мердок выясняет, что некие инопланетяне проводят эксперименты над городом и его жителями, изменяя также и их сознание, так что даже сами их воспоминанаия являются ложными...
Убийцу не помнящего своего имени и прошлого, преследует полицейский инспектор Фрэнк Бастед. Его ищет жена Эмма, за ним охотятся чужаки, а он по обрывкам воспоминаний пытается разобраться в том, что происходит...




Видео: 960 x 408 (2:35:1), 23.976 fps, AVC (х264) High@L4.1, ~ 1478 Kbps, 0.157 bit/pixel
Аудио: 48 kHz, AC3 Dolby Digital, 3/2 (L,C,R,l,r) + LFE ch, ~384 kbps avg


Рип: jeenart

General
Unique ID: 203421750931912077484652182079433653295 (0x99099AA94F0475E4A50EFDC88CB4BC2F)
Complete name: F:\Мои релизы\Все релизы 10\temnyi_gorod_[tfile.ru].mkv
Format: Matroska
File size: 1.45 GiB
Duration: 1h 51mn
Overall bit rate: 1 863 Kbps
Encoded date: UTC 2011-11-11 11:29:50
Writing application: mkvmerge v4.6.0 ('Still Crazy After All These Years') сборка от Apr1 2011 21:01:49
Writing library: libebml v1.2.0 + libmatroska v1.1.0

Video
ID: 1
Format: AVC
Format/Info: Advanced Video Codec
Format profile: High@L4.1
Format settings, CABAC: Yes
Format settings, ReFrames: 4 frames
Codec ID: V_MPEG4/ISO/AVC
Duration: 1h 51mn
Bit rate: 1 478 Kbps
Width: 960 pixels
Height: 408 pixels
Display aspect ratio: 2.35:1
Frame rate: 23.976 fps
Color space: YUV
Chroma subsampling: 4:2:0
Bit depth: 8 bits
Scan type: Progressive
Bits/(Pixel*Frame): 0.157
Stream size: 1.13 GiB (77%)
Writing library: x264 core 115 r1937 aa21558
Encoding settings: cabac=1 / ref=3 / deblock=1:-1:-1 / analyse=0x3:0x113 / me=hex / subme=7 / psy=1 / psy_rd=1.00:0.10 / mixed_ref=1 / me_range=16 / chroma_me=1 / trellis=1 / 8x8dct=1 / cqm=0 / deadzone=21,11 / fast_pskip=1 / chroma_qp_offset=-3 / threads=6 / sliced_threads=0 / nr=0 / decimate=1 / interlaced=0 / bluray_compat=0 / constrained_intra=0 / bframes=3 / b_pyramid=2 / b_adapt=1 / b_bias=0 / direct=3 / weightb=1 / open_gop=0 / weightp=2 / keyint=250 / keyint_min=23 / scenecut=40 / intra_refresh=0 / rc_lookahead=40 / rc=2pass / mbtree=1 / bitrate=1478 / ratetol=1.0 / qcomp=0.60 / qpmin=0 / qpmax=69 / qpstep=4 / cplxblur=20.0 / qblur=0.5 / ip_ratio=1.40 / aq=1:1.00

Audio
ID: 2
Format: AC-3
Format/Info: Audio Coding 3
Mode extension: CM (complete main)
Codec ID: A_AC3
Duration: 1h 51mn
Bit rate mode: Constant
Bit rate: 384 Kbps
Channel(s): 6 channels
Channel positions: Front: L C R, Side: L R, LFE
Sampling rate: 48.0 KHz
Bit depth: 16 bits
Compression mode: Lossy
Stream size: 307 MiB (21%)














Поделиться:




реклама партнёра


Вернуться к началу
 Профиль Отправить личное сообщение  
 
   Похожие торренты   Автор   Торрент   Размер 
В этой теме нет новых непрочитанных сообщений. Темный сигнал / Dark Signal [ужасы, триллер, детектив, 2016] HDRip, Avo

salma3

91 | 7

743.97 МБ

В этой теме нет новых непрочитанных сообщений. Темный рыцарь / The Dark Knight [Боевик, Фантастика, Триллер, Криминал, 2008] HDRip, Avo [Гаврилов]

salma3

49 | 5

2.18 ГБ

В этой теме нет новых непрочитанных сообщений. Город террора / Scarred City [Боевик, триллер, 1998] DVDRip, Dvo

salma3

39 | 3

1.36 ГБ

В этой теме нет новых непрочитанных сообщений. Тёмный сигнал / Dark Signal [ужасы, триллер, детектив, 2016] WEB-DLRip, Mvo

salma3

196 | 17

1.37 ГБ

В этой теме нет новых непрочитанных сообщений. Темный странник / The Dark Stranger [ужасы, триллер, мультфильм, 2015] HDRip, Avo

salma3

166 | 25

1.27 ГБ

В этой теме нет новых непрочитанных сообщений. Город гангстеров / Mob City [S01] [триллер, драма, криминал, детектив, 2013] WEB-DLRip, Mvo [LostFilm]

Ανδρέας

610 | 196

3.31 ГБ

В этой теме нет новых непрочитанных сообщений. Город гангстеров / Mob City [01х01-04] [триллер, драма, криминал, детектив, 2013] WEB-DLRip, HDTVRip, avo+dvo

Dracon

19 | 9

2.67 ГБ


Начать новую тему Ответить на тему  [ 1 сообщение ] 




Для Мосгорсуда, Роскомнадзора и рекламодателей:: mosgorsud-torrent[собачка]yandex.ru