Торрент файл
скачать торрент магнет ссылка Добавлен: 22 янв 2012, 14:26
Размер: 747.57 МБ
Сидеров: 21
Личеров: 6
Автор

СообщениеДобавлено: 22 янв 2012, 14:26 

Не в сети
Супермодератор
Аватара пользователя
Дата регистрации:
11 апр 2010, 18:10
Спасибо: 5802 / 7
Сообщения: 56779
Хищник 2 / Predator 2

Перевод: Профессиональный (многоголосый, закадровый), Профессиональный (полное дублирование)

Формат: LowHDRip, AVI, XviD, MP3

Страна: США

Режиссер: Стивен Хопкинс / Stephen Hopkins

Жанр: фантастика, боевик

Продолжительность: 01.48:00

Год выпуска: 1990

В ролях: Дэнни Гловер, Кевин Питер Холл, Гэри Бьюзи, Рубен Бладес, Мария Кончита Алонсо, Билл Пэкстон, Роберт Дави, Адам Болдуин, Кент МакКорт, Мортон Дауни Младший

Описание: Харриган - крутой полицейский отдела по борьбе с наркотиками полиции Лос - Анджелеса. Ему поручено расследование серии убийств крупных криминальных авторитетов города. Все убийства совершены в извращенной форме и пахнут неприкрытым садизмом. После проведения экспертиз и расследований становится ясно, что убийство - дело рук существа, не имеющего ничего общего с человеком.
Землю опять посетил межпланетный охотник, но ему придется столкнуться с существом еще более опасным, чем он сам - с человеком. Харриган выслеживает охотника, постепенно сам становясь охотником. Один на один, как настоящий воин, он ведет бескомпромиссную битву за сохранение чести и права человека не быть существом, на которое можно охотиться.


[/field]

Видео: 624x336 (1.857), 23.976 fps, XviD MPEG-4 ~826 kbps avg, 0.164 bit/pixel

Аудио #1: 44.1 kHz, MPEG Layer 3, 2 ch, ~64.00 kbps avg [Профессиональный (многоголосый, закадровый)]
Аудио #2: 44.1 kHz, MPEG Layer 3, 2 ch, ~64.00 kbps avg [Профессиональный (дублированный)]

General
Complete name: C:\Фильмы и пр\predator_vtoraya_chast_[tfile.ru].avi
Format: AVI
Format/Info: Audio Video Interleave
File size: 748 MiB
Duration: 1h 48mn
Overall bit rate: 968 Kbps
Writing application: VirtualDubMod 1.5.10.2 (build 2540/release)
Writing library: VirtualDubMod build 2540/release

Video
ID: 0
Format: MPEG-4 Visual
Format profile: Advanced Simple@L5
Format settings, BVOP: Yes
Format settings, QPel: Yes
Format settings, GMC: 3 warppoints
Format settings, Matrix: Custom
Codec ID: XVID
Codec ID/Hint: XviD
Duration: 1h 48mn
Bit rate: 826 Kbps
Width: 624 pixels
Height: 336 pixels
Display aspect ratio: 1.857
Frame rate: 23.976 fps
Color space: YUV
Chroma subsampling: 4:2:0
Bit depth: 8 bits
Scan type: Progressive
Bits/(Pixel*Frame): 0.164
Stream size: 638 MiB (85%)
Writing library: XviD 1.2.0.dev47 (UTC 2006-11-01)

Audio #1
ID: 1
Format: MPEG Audio
Format version: Version 1
Format profile: Layer 3
Mode: Joint stereo
Mode extension: MS Stereo
Codec ID: 55
Codec ID/Hint: MP3
Duration: 1h 48mn
Bit rate mode: Constant
Bit rate: 64.0 Kbps
Channel(s): 2 channels
Sampling rate: 44.1 KHz
Stream size: 49.4 MiB (7%)
Alignment: Split accross interleaves
Interleave, duration: 42 ms (1.00 video frame)
Interleave, preload duration: 500 ms
Writing library: LAMEUUULAME3.98.2

Audio #2
ID: 2
Format: MPEG Audio
Format version: Version 1
Format profile: Layer 3
Mode: Joint stereo
Mode extension: MS Stereo
Codec ID: 55
Codec ID/Hint: MP3
Duration: 1h 48mn
Bit rate mode: Constant
Bit rate: 64.0 Kbps
Channel(s): 2 channels
Sampling rate: 44.1 KHz
Stream size: 49.4 MiB (7%)
Alignment: Split accross interleaves
Interleave, duration: 42 ms (1.00 video frame)
Interleave, preload duration: 500 ms
Writing library: LAMEUUULAME3.98.2

*В конце фильма, когда Харриган разглядывает стенд с трофеями Хищника — черепами разных существ — он видит и череп Чужого из одноименного фильма. Это было сделано по предложению специалиста по спецэффектам Стэна Уинстона, который работал над спецэффектами также и в фильмах о Чужом. Это отсылка к комиксу «Чужой против Хищника».
*Сцена, в которой Хищник отдает Харригану пистолет 1715 года, по словам сценаристов, должна была стать зацепкой для продолжения фильма, в котором действие происходило бы в далеком прошлом.
*Арнольд Шварценеггер вначале согласился играть во второй части «Хищника», но позже передумал в пользу фильма «Терминатор 2». К тому же, он был категорически не согласен с тем, что действие нового фильма происходит в городе, а не в джунглях.
*Продюсеры предлагали Джону МакТирнану, режиссёру первого фильма о Хищнике, во второй раз занять режиссёрское кресло, но он отказался.
*Предполагалось, что события, показанные в фильме, будут происходить в Нью-Йорке. Из-за бюджетных ограничений место действия изменили на Лос-Анджелес.
*Сборище Хищников в конце фильма на борту звездолета сыграла команда НБА «Лос-Анджелес Лейкерс», которых пригласил исполнитель главной роли и болельщик Дэнни Гловер
Кинопремия «Сатурн» — номинации: лучший грим, лучший научно-фантастический фильм, лучшие спецэффекты.






Поделиться:




реклама партнёра


Вернуться к началу
 Профиль Отправить личное сообщение  
 
   Похожие торренты   Автор   Торрент   Размер 
В этой теме нет новых непрочитанных сообщений. Хищник 3D / Predator 3D () [Фантастика, Боевик, 1987] BDRip 720p, Dub [3D-Video | HSBS | Лицензия | 60 fps]

Dracon

23 | 5

7.18 ГБ

В этой теме нет новых непрочитанных сообщений. Великолепная Гилли Хопкинс / The Great Gilly Hopkins [Комедия, драма, семейный, 2016] HDRip, Mvo

salma3

1869 | 215

1.45 ГБ

В этой теме нет новых непрочитанных сообщений. Великолепная Гилли Хопкинс / The Great Gilly Hopkins [Комедия, драма, семейный, 2016] BDRip 1080p, Mvo

salma3

347 | 76

6.87 ГБ

В этой теме нет новых непрочитанных сообщений. Великолепная Гилли Хопкинс / The Great Gilly Hopkins [Комедия, драма, семейный, 2016] BDRip 720p, Mvo

salma3

355 | 136

3.74 ГБ

В этой теме нет новых непрочитанных сообщений. Девять жизней Томаса Катца / Die neun leben des Tomas Katz (Бен Хопкинс / Ben Hopkins) [2000г., апокалипсис – комедия, DVDRip] DVO

Alfredovich

46 | 2

1.37 ГБ

В этой теме нет новых непрочитанных сообщений. Специалист по выживанию / The Survivalist (Стивен Финглтон / Stephen Fingleton) [2015г., Великобритания, фантастика, триллер, драма, WEB-DL 720p] dvo

Alfredovich

596 | 18

3.26 ГБ

В этой теме нет новых непрочитанных сообщений. Свалка / Trash (Стивен Долдри / Stephen Daldry) [2014г., Великобритания, триллер, драма, криминал, приключения, HDRip] Dub

Alfredovich

620 | 6

1.37 ГБ


Начать новую тему Ответить на тему  [ 1 сообщение ] 




Для Мосгорсуда, Роскомнадзора и рекламодателей:: mosgorsud-torrent[собачка]yandex.ru