Торрент файл
скачать торрент магнет ссылка Добавлен: 22 янв 2012, 14:25
Размер: 1.45 ГБ
Сидеров: 3
Личеров: 5
Автор

СообщениеДобавлено: 22 янв 2012, 14:25 

Не в сети
Супермодератор
Аватара пользователя
Дата регистрации:
11 апр 2010, 18:10
Спасибо: 5801 / 7
Сообщения: 56779
[b]Атлант расправил плечи: Часть 1 / Atlas Shrugged: Part I[/b]


Перевод: Любительский (двухголосый)
Субтитры: отсутствуют
Формат: HDRip-AVC, MKV, H.264, AC3

Страна:США

Режиссер: Пол Йоханссон
Жанр: фантастика, драма, детектив
Продолжительность: 01:36:53
Год выпуска: 2011

В ролях: Тейлор Шиллинг, Эди Гатеги, Патрик Фишлер, Пол Йоханссон, Армин Шимерман, Джон Полито, Джеффри Пирсон, Майкл О’Киф, Мэттью Мэрсден, Грант Боулер.

Описание: Атлант расправил плечи» рассказывает о приходе социалистов к власти во всем мире. Начинаются гонения на крупный бизнес, свободный рынок уступает позиции плановой экономике, Америка постепенно погружается в хаос и тьму. Главные герои — владелица железнодорожной компании Дэгни Таггерт и глава металлургических заводов Хэнк Реардэн пытаются противостоять новым устоям…



Видео: 1024x432 (2.35:1), 23.976 fps, AVC MPEG-4 High@L4.1, ~1241 kbps avg, 0.117 bit/pixel
Аудио #1: русский48 kHz, AC3 Dolby Digital, 3/2 (L,C,R,l,r) + LFE ch, ~448 kbps avg [Любительский (двухголосый)]
Аудио #2: английский48 kHz, AC3 Dolby Digital, 3/2 (L,C,R,l,r) + LFE ch, ~448 kbps avg [оригинал]




Общее
Полное имя : F:\Atlas_Shrugged_ Part I.HDRip-AVC.mkv
Формат : Matroska
Версия формата : Version 2
Размер файла : 1,45 Гбайт
Продолжительность : 1 ч. 37 м.
Общий поток : 2134 Кбит/сек
Дата кодирования : UTC 2011-11-16 14:38:34
Программа кодирования : mkvmerge v5.0.1 ('Es ist Sommer') built on Oct 9 2011 11:55:43
Библиотека кодирования : libebml v1.2.2 + libmatroska v1.3.0

Видео
Идентификатор : 1
Формат : AVC
Формат/Информация : Advanced Video Codec
Профиль формата : High@L4.1
Параметр CABAC формата : Да
Параметр ReFrames формата : 9 кадров
Идентификатор кодека : V_MPEG4/ISO/AVC
Продолжительность : 1 ч. 37 м.
Битрейт : 1241 Кбит/сек
Ширина : 1024 пикселя
Высота : 432 пикселя
Соотношение сторон : 2,35:1
Частота кадров : 23,976 кадра/сек
Цветовое пространство : YUV
Субдискретизация насыщенности : 4:2:0
Битовая глубина : 8 бит
Тип развёртки : Прогрессивная
Бит/(Пиксели*Кадры) : 0.117
Размер потока : 831 Мбайт (56%)
Библиотека кодирования : x264 core 118 r2085 8a62835
Настройки программы : cabac=1 / ref=9 / deblock=1:-2:-1 / analyse=0x3:0x133 / me=umh / subme=9 / psy=1 / psy_rd=1.00:0.00 / mixed_ref=1 / me_range=32 / chroma_me=1 / trellis=2 / 8x8dct=1 / cqm=0 / deadzone=21,11 / fast_pskip=1 / chroma_qp_offset=-2 / threads=12 / sliced_threads=0 / nr=0 / decimate=1 / interlaced=0 / bluray_compat=0 / constrained_intra=0 / bframes=8 / b_pyramid=2 / b_adapt=2 / b_bias=0 / direct=3 / weightb=1 / open_gop=0 / weightp=2 / keyint=250 / keyint_min=23 / scenecut=40 / intra_refresh=0 / rc_lookahead=50 / rc=2pass / mbtree=1 / bitrate=1241 / ratetol=1.0 / qcomp=0.65 / qpmin=0 / qpmax=69 / qpstep=4 / cplxblur=20.0 / qblur=0.5 / ip_ratio=1.40 / aq=1:1.00
Язык : English

Аудио #1
Идентификатор : 2
Формат : AC-3
Формат/Информация : Audio Coding 3
Расширение режима : CM (complete main)
Идентификатор кодека : A_AC3
Продолжительность : 1 ч. 37 м.
Вид битрейта : Постоянный
Битрейт : 448 Кбит/сек
Каналы : 6 каналов
Расположение каналов : Front: L C R, Side: L R, LFE
Частота : 48,0 КГц
Битовая глубина : 16 бит
Метод сжатия : С потерями
Размер потока : 311 Мбайт (21%)
Заголовок : DVO
Язык : Russian

Аудио #2
Идентификатор : 3
Формат : AC-3
Формат/Информация : Audio Coding 3
Расширение режима : CM (complete main)
Идентификатор кодека : A_AC3
Продолжительность : 1 ч. 37 м.
Вид битрейта : Постоянный
Битрейт : 448 Кбит/сек
Каналы : 6 каналов
Расположение каналов : Front: L C R, Side: L R, LFE
Частота : 48,0 КГц
Битовая глубина : 16 бит
Метод сжатия : С потерями
Размер потока : 311 Мбайт (21%)
Заголовок : ORIGINAL
Язык : English








Поделиться:




реклама партнёра


Вернуться к началу
 Профиль Отправить личное сообщение  
 
   Похожие торренты   Автор   Торрент   Размер 
В этой теме нет новых непрочитанных сообщений. Атлант расправил плечи: Часть 3 / Atlas Shrugged: Part III (Джеймс Манера) [Фантастика, драма, детектив, 2014] HDRip, dvo

Dracon

5 | 1

1.45 ГБ

В этой теме нет новых непрочитанных сообщений. Атлант расправил плечи: Часть 3 / Atlas Shrugged: Part III (Джеймс Манера) [Фантастика, драма, детектив, 2014] BDRip 720p, dvo

Dracon

414 | 18

4.5 ГБ

В этой теме нет новых непрочитанных сообщений. Паразит: Часть 2 / Kiseijû: Part 2 (Такаси Ямадзаки) [Фантастика, ужасы, 2015] HDRip, dvo

Dracon

251 | 15

1.45 ГБ

В этой теме нет новых непрочитанных сообщений. Голодные игры: Сойка-пересмешница. Часть II / The Hunger Games: Mockingjay - Part 2 [фантастика, приключения, 2015] HDRip, Dub [чистый звук]

salma3

27 | 1

1.37 ГБ

В этой теме нет новых непрочитанных сообщений. Голодные игры: Сойка-пересмешница. Часть II / The Hunger Games: Mockingjay - Part 2 [фантастика, приключения, 2015] HDRip, Dub [Чистый звук]

salma3

3223 | 98

2.06 ГБ

В этой теме нет новых непрочитанных сообщений. Голодные игры: Сойка-пересмешница. Часть I / The Hunger Games: Mockingjay - Part 1 (Френсис Лоуренс) [Фантастика, Приключения, 2014] HDRip, Dub [iTunes]

Dracon

28 | 2

1.46 ГБ

В этой теме нет новых непрочитанных сообщений. Голодные игры: Сойка-пересмешница. Часть I / The Hunger Games: Mockingjay - Part 1 (Френсис Лоуренс) [Фантастика, Приключения, 2014] HDRip, dub [Чистый звук]

Dracon

190 | 8

1.46 ГБ


Начать новую тему Ответить на тему  [ 1 сообщение ] 




Для Мосгорсуда, Роскомнадзора и рекламодателей:: mosgorsud-torrent[собачка]yandex.ru