Торрент файл
скачать торрент магнет ссылка Добавлен: 22 янв 2012, 14:22
Размер: 1.43 ГБ
Сидеров: 98
Личеров: 8
Автор

СообщениеДобавлено: 22 янв 2012, 14:22 

Не в сети
Супермодератор
Аватара пользователя
Дата регистрации:
11 апр 2010, 18:10
Спасибо: 5914 / 7
Сообщения: 56776
[b]Бермудский треугольник / The Triangle[/b]

Перевод: Профессиональный (многоголосый, закадровый), cубтитры: отсутствуют

Формат: DVDRip, AVI, XviD, MP3

Страна: США, Великобритания

Режиссер: Крэйг Р. Бэксли

Жанр: фантастика, приключения, детектив, триллер

Продолжительность: 04:09:09

Год выпуска: 2005

В ролях: Эрик Штольц, Катрин Белл, Лу Даймонд Филлипс, Брюс Дэвисон, Майкл Э. Роджерс, Сэм Нил, Лиза Бреннер, Джон Слоун, Чарльз Мартин Смит, Бэрри Ингэм

Описание: Миллиардер Эрик Бениролл нанимает команду специалистов, чтобы те попытались выяснить причину исчезновения в районе Бермудского треугольника принадлежавших ему кораблей. Команда — журналист-скептик, инженер, ученый и экстрасенс — отправились в заданный район и вскоре столкнулись с аномальными явлениями, но, как оказалось, это — только начало. Что происходит? Куда они плывут? Они живы или мертвы? Пришельцы или что-то еще?…

________

Видео: 608x336 (1.81:1), 23.976 fps, XviD build 46 ~699 kbps avg, 0.14 bit/pixel
Аудио: 44.100 kHz, MPEG Layer 3, 2 ch, ~112.00 kbps avg

Доп. информация: Бюджет $22 000 000

General
Complete name: E:\the_triangle_[tfile.ru].avi
Format: AVI
Format/Info: Audio Video Interleave
File size: 1.43 GiB
Duration: 4h 9mn
Overall bit rate: 821 Kbps
Writing library: TMPGEnc 4.0 XPress Version. 4.6.3.268

Video
ID: 0
Format: MPEG-4 Visual
Format profile: Advanced Simple@L5
Format settings, BVOP: 2
Format settings, QPel: No
Format settings, GMC: No warppoints
Format settings, Matrix: Custom
Codec ID: XVID
Codec ID/Hint: XviD
Duration: 4h 9mn
Bit rate: 697 Kbps
Width: 608 pixels
Height: 336 pixels
Display aspect ratio: 16:9
Frame rate: 23.976 fps
Color space: YUV
Chroma subsampling: 4:2:0
Bit depth: 8 bits
Scan type: Progressive
Compression mode: Lossy
Bits/(Pixel*Frame): 0.142
Stream size: 1.21 GiB (85%)
Writing library: XviD 1.1.2 (UTC 2006-11-01)

Audio
ID: 1
Format: MPEG Audio
Format version: Version 1
Format profile: Layer 3
Mode: Joint stereo
Mode extension: MS Stereo
Codec ID: 55
Codec ID/Hint: MP3
Duration: 4h 9mn
Bit rate mode: Constant
Bit rate: 112 Kbps
Channel(s): 2 channels
Sampling rate: 44.1 KHz
Compression mode: Lossy
Stream size: 200 MiB (14%)
Alignment: Aligned on interleaves
Interleave, duration: 42 ms (1.00 video frame)
Interleave, preload duration: 417 ms

























Поделиться:




реклама партнёра


Вернуться к началу
 Профиль Отправить личное сообщение  
 
   Похожие торренты   Автор   Торрент   Размер 
В этой теме нет новых непрочитанных сообщений. Бермудский треугольник / The Bermuda Triangle [мистика, 1978] DVDRip, Mvo

salma3

254 | 14

1.36 ГБ

В этой теме нет новых непрочитанных сообщений. Треугольник / Triangle [триллер, ужасы, детектив, 2009] HDRip-AVC, Mvo

salma3

48 | 44

1.45 ГБ

В этой теме нет новых непрочитанных сообщений. Треугольник / Triangle / Tie saam gok [боевик, драма, приключения, 2007] BDRemux 1080p, Dvo+Avo

salma3

11 | 24

26.22 ГБ

В этой теме нет новых непрочитанных сообщений. Железный треугольник / The Iron Triangle [драма, военный, 1989] DVDRip, Dvo

salma3

27 | 12

1.45 ГБ

В этой теме нет новых непрочитанных сообщений. Z – значит Захария / Z for Zachariah (Крэйг Зобел) [Фантастика, драма, триллер, 2015] HDRip, avo

Dracon

1233 | 55

1.29 ГБ

В этой теме нет новых непрочитанных сообщений. Z – значит Захария / Z for Zachariah (Крэйг Зобел) [Фантастика, драма, триллер, 2015] WEB-DLRip 720p, avo

Dracon

414 | 18

3.17 ГБ

В этой теме нет новых непрочитанных сообщений. Война миров / War of the Worlds [фантастика, триллер, приключения, 2005] BDRip, Dub

salma3

78 | 28

1.46 ГБ


Начать новую тему Ответить на тему  [ 1 сообщение ] 




Для Мосгорсуда, Роскомнадзора и рекламодателей:: mosgorsud-torrent[собачка]yandex.ru