Торрент файл
скачать торрент магнет ссылка Добавлен: 22 янв 2012, 14:21
Размер: 2.21 ГБ
Сидеров: 343
Личеров: 17
Автор

СообщениеДобавлено: 22 янв 2012, 14:21 

Не в сети
Супермодератор
Аватара пользователя
Дата регистрации:
11 апр 2010, 18:10
Спасибо: 5962 / 7
Сообщения: 56762
Восстание планеты обезьян / Rise of the Planet of the Apes

Перевод: Профессиональный (полное дублирование), cубтитры: Русские, Английские (полные, форсированные, отключаемые)
Формат: HDRip, MKV, H.264, AC3
Страна: США
Режиссер: Руперт Уайатт
Жанр: фантастика, боевик, триллер, драма
Продолжительность: 01:44:56
Год выпуска: 2011
В ролях: Джеймс Франко, Джон Литгоу, Фрида Пинто, Тайлер Лэбин, Брайан Кокс, Том Фелтон, Дэвид Ойелоуо, Джэми Харрис, Дэвид Хьюлетт, Ти Олссон
Описание: Молодой ученый испытывает на обезьянах новое лекарство от болезни Альцгеймера. У препарата обнаруживается удивительный побочный эффект: он повышает в несколько раз интеллект приматов.

Видео: 1280x544 (2,35:1), 23,976 fps, MPEG4 AVC (х264), High@L4.1 ~2600 kbps avg, 0.156 bit/pixel
Аудио: 48 kHz,AC-3, 6 ch, ~448.00 kbps avg


Автор РИПа:
Общее
Уникальный идентификатор : 203073436605785027046675437407791284737 (0x98C685706F55B11F842689FEEF410201)
Полное имя : f:\Downloads\rise_of_the_planet_of_the_apes_[tfile.ru].mkv
Формат : Matroska
Версия формата : Version 2
Размер файла : 2,21 Гбайт
Продолжительность : 1 ч. 44 м.
Общий поток : 3009 Кбит/сек
Дата кодирования : UTC 2011-12-04 21:17:42
Программа кодирования : mkvmerge v4.6.0 ('Still Crazy After All These Years') сборка от Mar 10 2011 02:50:32
Библиотека кодирования : libebml v1.2.0 + libmatroska v1.1.0

Видео
Идентификатор : 1
Формат : AVC
Формат/Информация : Advanced Video Codec
Профиль формата : High@L4.1
Параметр CABAC формата : Да
Параметр ReFrames формата : 3 кадра
Режим смешивания : Header stripping
Идентификатор кодека : V_MPEG4/ISO/AVC
Продолжительность : 1 ч. 44 м.
Битрейт : 2600 Кбит/сек
Ширина : 1280 пикселей
Высота : 544 пикселя
Соотношение сторон : 2,35:1
Режим частоты кадров : Переменный
Частота кадров : 23,976 кадра/сек
Цветовое пространство : YUV
Субдискретизация насыщенности : 4:2:0
Битовая глубина : 8 бит
Тип развёртки : Прогрессивная
Бит/(Пиксели*Кадры) : 0.156
Размер потока : 1,83 Гбайт (83%)
Библиотека кодирования : x264 core 116 r2019M 9cc407d
Настройки программы : cabac=1 / ref=3 / deblock=1:-1:-1 / analyse=0x3:0x133 / me=hex / subme=7 / psy=1 / psy_rd=1.00:0.15 / mixed_ref=1 / me_range=16 / chroma_me=1 / trellis=1 / 8x8dct=1 / cqm=0 / deadzone=21,11 / fast_pskip=1 / chroma_qp_offset=-3 / threads=8 / sliced_threads=0 / nr=0 / decimate=1 / interlaced=0 / bluray_compat=0 / constrained_intra=0 / bframes=3 / b_pyramid=1 / b_adapt=2 / b_bias=0 / direct=3 / weightb=1 / open_gop=0 / weightp=2 / keyint=230 / keyint_min=23 / scenecut=40 / intra_refresh=0 / rc_lookahead=40 / rc=abr / mbtree=1 / bitrate=2600 / ratetol=1.0 / qcomp=0.60 / qpmin=10 / qpmax=51 / qpstep=4 / ip_ratio=1.40 / aq=1:1.00
Язык : English
Default : Да
Forced : Нет

Аудио
Идентификатор : 2
Формат : AC-3
Формат/Информация : Audio Coding 3
Расширение режима : CM (complete main)
Режим смешивания : Header stripping
Идентификатор кодека : A_AC3
Продолжительность : 1 ч. 44 м.
Вид битрейта : Постоянный
Битрейт : 448 Кбит/сек
Каналы : 6 каналов
Расположение каналов : Front: L C R, Side: L R, LFE
Частота : 48,0 КГц
Битовая глубина : 16 бит
Метод сжатия : С потерями
Размер потока : 336 Мбайт (15%)
Заголовок : DUB
Язык : Russian
Default : Да
Forced : Нет

Текст #1
Идентификатор : 3
Формат : UTF-8
Идентификатор кодека : S_TEXT/UTF8
Идентификатор кодека/Информация : UTF-8 Plain Text
Заголовок : Forced
Язык : Russian
Default : Да
Forced : Да

Текст #2
Идентификатор : 4
Формат : UTF-8
Идентификатор кодека : S_TEXT/UTF8
Идентификатор кодека/Информация : UTF-8 Plain Text
Язык : Russian
Default : Нет
Forced : Нет

Текст #3
Идентификатор : 5
Формат : UTF-8
Идентификатор кодека : S_TEXT/UTF8
Идентификатор кодека/Информация : UTF-8 Plain Text
Заголовок : Forced
Язык : English
Default : Нет
Forced : Нет

Текст #4
Идентификатор : 6
Формат : UTF-8
Идентификатор кодека : S_TEXT/UTF8
Идентификатор кодека/Информация : UTF-8 Plain Text
Язык : English
Default : Нет
Forced : Нет

Меню
00:00:00.000 : :00:00:00.000
00:05:24.407 : :00:05:24.407
00:09:17.974 : :00:09:17.974
00:14:19.067 : :00:14:19.067
00:18:07.545 : :00:18:07.545
00:20:03.786 : :00:20:03.786
00:22:38.148 : :00:22:38.148
00:25:17.015 : :00:25:17.015
00:29:42.656 : :00:29:42.656
00:33:38.266 : :00:33:38.266
00:38:29.098 : :00:38:29.098
00:41:12.595 : :00:41:12.595
00:45:19.008 : :00:45:19.008
00:48:50.177 : :00:48:50.177
00:52:56.632 : :00:52:56.632
00:57:30.280 : :00:57:30.280
00:59:26.730 : :00:59:26.730
01:01:30.145 : :01:01:30.145
01:05:03.608 : :01:05:03.608
01:06:20.268 : :01:06:20.268
01:09:34.962 : :01:09:34.962
01:11:15.688 : :01:11:15.688
01:15:44.123 : :01:15:44.123
01:18:29.204 : :01:18:29.204
01:23:09.276 : :01:23:09.276
01:27:50.390 : :01:27:50.390
01:33:00.366 : :01:33:00.366
01:37:08.948 : :01:37:08.948

















Поделиться:




реклама партнёра


Вернуться к началу
 Профиль Отправить личное сообщение  
 
   Похожие торренты   Автор   Торрент   Размер 
В этой теме нет новых непрочитанных сообщений. Бегство с планеты обезьян / Escape from the Planet of the Apes [фантастика, боевик, 1971] BDRip-AVC, Mvo+Sub

salma3

21 | 34

2.2 ГБ

В этой теме нет новых непрочитанных сообщений. Планета обезьян: Война / War for the Planet of the Apes [фантастика, боевик, триллер, 2017] HDRip, Dub [iTunes]

salma3

14251 | 5963

1.46 ГБ

В этой теме нет новых непрочитанных сообщений. Планета обезьян: Война / War for the Planet of the Apes [фантастика, боевик, триллер, 2017] HDRip-AVC, Dub [iTunes]

salma3

578 | 56

2.11 ГБ

В этой теме нет новых непрочитанных сообщений. Планета обезьян: Война / War for the Planet of the Apes [фантастика, боевик, триллер, 2017] WEB-DL 1080р, Dub

salma3

377 | 147

5.39 ГБ

В этой теме нет новых непрочитанных сообщений. Планета обезьян: Война / War for the Planet of the Apes [фантастика, боевик, триллер, 2017] BDRip, Dub+Sub [Лицензия]

salma3

906 | 242

2.18 ГБ

В этой теме нет новых непрочитанных сообщений. Планета обезьян: Война / War for the Planet of the Apes [фантастика, боевик, триллер, 2017] BDRip, Dub+Sub [Лицензия]

salma3

2069 | 1009

1.46 ГБ

В этой теме нет новых непрочитанных сообщений. Планета обезьян: Война / War for the Planet of the Apes [фантастика, боевик, триллер, 2017] BDRip 720p, Dub+Sub [Лицензия]

salma3

0 | 0

6.22 ГБ


Начать новую тему Ответить на тему  [ 1 сообщение ] 




Для Мосгорсуда, Роскомнадзора и рекламодателей:: mosgorsud-torrent[собачка]yandex.ru