Торрент файл
скачать торрент магнет ссылка Добавлен: 22 янв 2012, 14:19
Размер: 2 ГБ
Сидеров: 181
Личеров: 8
Автор

СообщениеДобавлено: 22 янв 2012, 14:19 

Не в сети
Супермодератор
Аватара пользователя
Дата регистрации:
11 апр 2010, 18:10
Спасибо: 5960 / 7
Сообщения: 56770
Временная петля / Los cronocrimenes

Перевод: Профессиональный (двухголосый, закадровый), cубтитры: Русские, Английские (полные, отключаемые)
Формат: HDRip, MKV, H.264, AC3
Страна: Испания
Режиссер: Начо Вигалондо
Жанр: фантастика, триллер, драма, детектив
Продолжительность: 01:32:21
Год выпуска: 2007
В ролях: Карра Элехальде, Кандела Фернандез, Барбара Гоэнага, Начо Вигалондо, Джуан Инкиарте, Miguel Angel Poo, Либби Брайан, Николь Дайонн, Филип Херш
Описание: Гектор-самый обычный человек, вполне довольный своей жизнью: любящая жена, дом за городом. В один из вечеров внимание Гектора привлекает мелькнувшая в лесу полуобнаженная девушка и движимый любопытством, мужчина отправляется разведать, что же там такое происходит. В лесу он сталкивается с человеком, чье лицо скрыто окровавленными бинтами. Скрываясь от преследования незнакомца, Гектор случайно попадает в машину времени…

Видео: 1280x688 (1,86:1), 23,976 fps, MPEG4 AVC (х264), High@L4.1 ~2656 kbps avg, 0.126 bit/pixel
Аудио#1:Русский: 48 kHz,AC-3, 2 ch, ~192.00 kbps avg [Профессиональный (двухголосый, закадровый, НТВ+)]
Аудио#2:Русский: 48 kHz,AC-3, 2 ch, ~192.00 kbps avg [Профессиональный (двухголосый, закадровый)]


Автор РИПа:
Общее
Уникальный идентификатор : 242647539788985822439454939613580618360 (0xB68C375E339272BDBB1525FD48F5EA7
Полное имя : f:\Downloads\los_cronocrimenes_[tfile.ru].mkv
Формат : Matroska
Версия формата : Version 2
Размер файла : 2,00 Гбайт
Продолжительность : 1 ч. 32 м.
Общий поток : 3102 Кбит/сек
Дата кодирования : UTC 2011-12-07 16:56:02
Программа кодирования : mkvmerge v4.6.0 ('Still Crazy After All These Years') сборка от Mar 10 2011 02:50:32
Библиотека кодирования : libebml v1.2.0 + libmatroska v1.1.0

Видео
Идентификатор : 1
Формат : AVC
Формат/Информация : Advanced Video Codec
Профиль формата : High@L4.1
Параметр CABAC формата : Да
Параметр ReFrames формата : 3 кадра
Режим смешивания : Header stripping
Идентификатор кодека : V_MPEG4/ISO/AVC
Продолжительность : 1 ч. 32 м.
Битрейт : 2656 Кбит/сек
Номинальный битрейт : 2800 Кбит/сек
Ширина : 1280 пикселей
Высота : 688 пикселей
Соотношение сторон : 1,860
Режим частоты кадров : Переменный
Частота кадров : 23,976 кадра/сек
Цветовое пространство : YUV
Субдискретизация насыщенности : 4:2:0
Битовая глубина : 8 бит
Тип развёртки : Прогрессивная
Бит/(Пиксели*Кадры) : 0.126
Размер потока : 1,71 Гбайт (86%)
Библиотека кодирования : x264 core 116 r2019M 9cc407d
Настройки программы : cabac=1 / ref=3 / deblock=1:-1:-1 / analyse=0x3:0x133 / me=hex / subme=7 / psy=1 / psy_rd=1.00:0.15 / mixed_ref=1 / me_range=16 / chroma_me=1 / trellis=1 / 8x8dct=1 / cqm=0 / deadzone=21,11 / fast_pskip=1 / chroma_qp_offset=-3 / threads=8 / sliced_threads=0 / nr=0 / decimate=1 / interlaced=0 / bluray_compat=0 / constrained_intra=0 / bframes=3 / b_pyramid=1 / b_adapt=2 / b_bias=0 / direct=3 / weightb=1 / open_gop=0 / weightp=2 / keyint=230 / keyint_min=23 / scenecut=40 / intra_refresh=0 / rc_lookahead=40 / rc=abr / mbtree=1 / bitrate=2800 / ratetol=1.0 / qcomp=0.60 / qpmin=10 / qpmax=51 / qpstep=4 / vbv_maxrate=31250 / vbv_bufsize=31250 / nal_hrd=none / ip_ratio=1.40 / aq=1:1.00
Default : Да
Forced : Нет

Аудио #1
Идентификатор : 2
Формат : AC-3
Формат/Информация : Audio Coding 3
Расширение режима : CM (complete main)
Режим смешивания : Header stripping
Идентификатор кодека : A_AC3
Продолжительность : 1 ч. 32 м.
Вид битрейта : Постоянный
Битрейт : 192 Кбит/сек
Каналы : 2 канала
Расположение каналов : Front: L R
Частота : 48,0 КГц
Битовая глубина : 16 бит
Метод сжатия : С потерями
Размер потока : 127 Мбайт (6%)
Заголовок : DVO (НТВ+)
Язык : Russian
Default : Да
Forced : Нет

Аудио #2
Идентификатор : 3
Формат : AC-3
Формат/Информация : Audio Coding 3
Расширение режима : CM (complete main)
Режим смешивания : Header stripping
Идентификатор кодека : A_AC3
Продолжительность : 1 ч. 32 м.
Вид битрейта : Постоянный
Битрейт : 192 Кбит/сек
Каналы : 2 канала
Расположение каналов : Front: L R
Частота : 48,0 КГц
Битовая глубина : 16 бит
Метод сжатия : С потерями
Размер потока : 127 Мбайт (6%)
Заголовок : DVO
Язык : Russian
Default : Нет
Forced : Нет

Текст #1
Идентификатор : 4
Формат : UTF-8
Идентификатор кодека : S_TEXT/UTF8
Идентификатор кодека/Информация : UTF-8 Plain Text
Язык : Russian
Default : Да
Forced : Нет

Текст #2
Идентификатор : 5
Формат : UTF-8
Идентификатор кодека : S_TEXT/UTF8
Идентификатор кодека/Информация : UTF-8 Plain Text
Язык : English
Default : Нет
Forced : Нет

Меню
00:00:00.000 : en:00:00:00.000
00:05:33.208 : en:00:05:33.208
00:08:43.106 : en:00:08:43.106
00:13:39.736 : en:00:13:39.736
00:19:33.422 : en:00:19:33.422
00:24:21.752 : en:00:24:21.752
00:35:11.818 : en:00:35:11.818
00:41:40.373 : en:00:41:40.373
00:52:12.713 : en:00:52:12.713
00:58:43.729 : en:00:58:43.729
01:04:01.838 : en:01:04:01.838
01:09:25.036 : en:01:09:25.036
01:12:39.564 : en:01:12:39.564
01:16:18.783 : en:01:16:18.783
01:19:19.129 : en:01:19:19.129
01:28:39.314 : en:01:28:39.314











Поделиться:




реклама партнёра


Вернуться к началу
 Профиль Отправить личное сообщение  
 
   Похожие торренты   Автор   Торрент   Размер 
В этой теме нет новых непрочитанных сообщений. Открытые окна / Open Windows (Начо Вигалондо) [2014, триллер, BDRip | Лицензия] Dub

Nickolas3435

659 | 33

2.18 ГБ

В этой теме нет новых непрочитанных сообщений. Сингапурская петля / Петля затягивается в Сингапуре / Singapore Sling [триллер, драма, 1993] VHSRip, Avo+Sub

salma3

3 | 1

1.37 ГБ

В этой теме нет новых непрочитанных сообщений. Петля / Hurok [фантастика, триллер, криминал, 2016] WEB-DLRip, Mvo

salma3

1023 | 193

1.36 ГБ

В этой теме нет новых непрочитанных сообщений. Петля / Hurok (Иштван Мадарас / Isti Madarász) [2016 г., Венгрия, фантастика, триллер, криминал, WEBRip 720p] sub

Alfredovich

1 | 2

865.39 МБ

В этой теме нет новых непрочитанных сообщений. В долине Эла / In the Valley of Elah [триллер, драма, криминал, детектив, 2007] HDRip, Dub

salma3

312 | 19

1.45 ГБ

В этой теме нет новых непрочитанных сообщений. Герои / Heroes [S01-02] [Фантастика, триллер, драма, 2006-2007] HDRip, Dub [КПК]

salma3

2 | 5

5.98 ГБ

В этой теме нет новых непрочитанных сообщений. Прибытие / Arrival [фантастика, триллер, драма, детектив, 2016] HDRip, Dub [iTunes]

Dracon

246 | 143

1.46 ГБ


Начать новую тему Ответить на тему  [ 1 сообщение ] 




Для Мосгорсуда, Роскомнадзора и рекламодателей:: mosgorsud-torrent[собачка]yandex.ru