Торрент файл
скачать торрент магнет ссылка Добавлен: 22 янв 2012, 14:18
Размер: 1.46 ГБ
Сидеров: 50
Личеров: 10
Автор

СообщениеДобавлено: 22 янв 2012, 14:18 

Не в сети
Супермодератор
Аватара пользователя
Дата регистрации:
11 апр 2010, 18:10
Спасибо: 5801 / 7
Сообщения: 56779
Агент пришельцев / Alien Agent


Перевод: Профессиональный (многоголосый, закадровый), cубтитры: отсутствуют
Формат: DVDRip-AVC, MKV, H.264, AC3
Страна: Канада
Режиссер: Джесси Джонсон
Жанр: фантастика, боевик, драма, криминал
Продолжительность: 01:30:30
Год выпуска: 2007
В ролях: Марк Дакаскос, Билли Зейн, Эмма Лахана, Ким Коатс, Амелия Кук, Люк Дарнелл, Роб Хейтер, Линдсей Максвелл

Описание: На Землю пожаловали гости из галактики, находящейся за много световых лет от Солнечной системы. Их планета умирает. И их правительство разработало отчаянный план — найти убежище на другой планете без разумных существ. Поиски идут медленно, и народ теряет надежду. Однако группа военных-отступников нашла место, кажущееся им идеальным. Это планета Земля… наша Земля. И их командиру нет дела, до того что планета Земля обитаема. Он готов уничтожить всех, кто будет помешать «великому переселению».



Видео: 704x400 (16:9),25.000 fps, AVC (х264) High@L3.0, ~ 1856kbps avg,0.264bit/pixel
Аудио: 48.0 kHz, AC3, (Front: L C R, Side: L R, LFE) , 6 ch ~ 448 Kbps avg


Общее
Уникальный идентификатор: 215237836829090175357018717627023874543 (0xA1ED4CACC7EB6E5CA1BF32D1A59FD9EF)
Полное имя: E:\Агент пришельцев_DVDRip_AVC.mkv
Формат: Matroska
Размер файла: 1,46 Гбайт
Продолжительность: 1 ч. 30 м.
Общий поток: 2307 Кбит/сек
Дата кодирования: UTC 2008-11-01 12:05:13
Программа кодирования: mkvmerge v2.3.0 ('Freak U') built on Sep8 2008 18:32:16
Библиотека кодирования: libebml v0.7.7 + libmatroska v0.8.1

Видео
Идентификатор: 1
Формат: AVC
Формат/Информация: Advanced Video Codec
Профиль формата: High@L3.0
Параметр CABAC формата: Да
Параметр ReFrames формата: 3 кадры
Идентификатор кодека: V_MPEG4/ISO/AVC
Продолжительность: 1 ч. 30 м.
Битрейт: 1856 Кбит/сек
Ширина: 704 пикс.
Высота: 400 пикс.
Соотношение сторон: 16:9
Частота кадров: 25,000 кадр/сек
Цветовое пространство: YUV
Подвыборка цветности: 4:2:0
Битовая глубина: 8 бит
Тип развёртки: Прогрессивная
Бит/(Пиксели*Кадры): 0.264
Размер потока: 1,15 Гбайт (79%)
Библиотека кодирования: x264 core 65 r999 cc51047
Настройки программы: cabac=1 / ref=3 / deblock=1:-1:-1 / analyse=0x3:0x113 / me=hex / subme=6 / psy_rd=1.0:0.0 / mixed_ref=1 / me_range=16 / chroma_me=1 / trellis=1 / 8x8dct=1 / cqm=0 / deadzone=21,11 / chroma_qp_offset=-2 / threads=3 / nr=0 / decimate=1 / mbaff=0 / bframes=16 / b_pyramid=1 / b_adapt=1 / b_bias=0 / direct=3 / wpredb=1 / keyint=250 / keyint_min=25 / scenecut=40(pre) / rc=2pass / bitrate=1856 / ratetol=1.0 / qcomp=0.60 / qpmin=10 / qpmax=51 / qpstep=4 / cplxblur=20.0 / qblur=0.5 / ip_ratio=1.40 / pb_ratio=1.30 / aq=1:1.00

Аудио
Идентификатор: 2
Формат: AC-3
Формат/Информация: Audio Coding 3
Расширение режима: CM (complete main)
Идентификатор кодека: A_AC3
Продолжительность: 1 ч. 30 м.
Вид битрейта: Постоянный
Битрейт: 448 Кбит/сек
Канал(ы): 6 канала(ов)
Расположение каналов: Front: L C R, Side: L R, LFE
Частота: 48,0 КГц
Битовая глубина: 16 бит
Метод сжатия: С потерями
Размер потока: 290 Мбайт (19%)
Язык: Russian

Первоначально главную роль должен был исполнить Дольф Лундгрен.





Поделиться:




реклама партнёра


Вернуться к началу
 Профиль Отправить личное сообщение  
 
   Похожие торренты   Автор   Торрент   Размер 
В этой теме нет новых непрочитанных сообщений. Агент Картер / Agent Carter (Сезон 1-2, Серия 1-18 из 18) (Луис Д'Эспозито, Питер Лето) [2015-2016 , Фантастика, боевик, приключения, криминал, драма , WEB-DLRip-AVC 1080p] [MVO] [LostFilm , Nevafilm , English] + [Subs Rus,ENG]

Враг Нароода

0 | 0

32.66 ГБ

В этой теме нет новых непрочитанных сообщений. Хитмэн: Агент 47 / Hitman: Agent 47 (Александр Бах) [боевик, фантастика, триллер, 2015] Blu-Ray, Dub+Sub [Лицензия]

Dracon

171 | 170

36.96 ГБ

В этой теме нет новых непрочитанных сообщений. Хитмэн: Агент 47 / Hitman: Agent 47 (Александр Бах) [2015, Боевик, фантастика, триллер , BD-Remux 1080p] [DD5.1] [Dub Rus , Ukr]+[Eng]+[Sub Rus , Ukr , Eng]

Враг Нароода

4 | 3

19.43 ГБ

В этой теме нет новых непрочитанных сообщений. Хитмэн: Агент 47 / Hitman: Agent 47 (Александр Бах) [боевик, фантастика, триллер, 2015] HDRip, Dub [Лицензия]

Dracon

7101 | 287

1.37 ГБ

В этой теме нет новых непрочитанных сообщений. Хитмэн: Агент 47 / Hitman: Agent 47 (Александр Бах) [боевик, фантастика, триллер, 2015] HDTVRip, dub [чистый звук]

Dracon

3069 | 25

1.46 ГБ

В этой теме нет новых непрочитанных сообщений. Агент Коди Бэнкс / Agent Cody Banks [Комедия, боевик, приключения, фантастика, 2003] DVD9, Dub+Dvo+Sub

salma3

5 | 6

7.86 ГБ

В этой теме нет новых непрочитанных сообщений. Хитмэн: Агент 47 / Hitman: Agent 47 (Александр Бах) [боевик, фантастика, триллер, 2015] BDRip 1080p, Dub+Sub [Лицензия]

Dracon

1245 | 175

9.56 ГБ


Начать новую тему Ответить на тему  [ 1 сообщение ] 




Для Мосгорсуда, Роскомнадзора и рекламодателей:: mosgorsud-torrent[собачка]yandex.ru