Торрент файл
скачать торрент магнет ссылка Добавлен: 22 янв 2012, 14:18
Размер: 2.07 ГБ
Сидеров: 43
Личеров: 5
Автор

СообщениеДобавлено: 22 янв 2012, 14:18 

Не в сети
Супермодератор
Аватара пользователя
Дата регистрации:
11 апр 2010, 18:10
Спасибо: 5802 / 7
Сообщения: 56779
[b]Ковбои против пришельцев / Cowboys & Aliens[/b]


Перевод: Профессиональный (полное дублирование)
Субтитры: отсутствуют
Формат: HDRip-AVC, MKV, H.264, AC3

Страна: США, Индия

Режиссер: Джон Фавро
Жанр: фантастика, боевик, триллер, вестерн
Продолжительность: 01:58:13
Год выпуска: 2011

В ролях: Дэниэл Крэйг, Харрисон Форд, Эбигейл Спенсер, Бак Тейлор, Мэттью Тейлор, Купер Тейлор, Клэнси Браун, Пол Дано, Крис Браунинг, Адам Бич.

Описание: 1873, Абсолюшен, штат Аризона. В эту глухую американскую провинцию прибывает потерявший память незнакомец. Единственный намек на его прошлое — это странные кандалы на одном из его запястий. Странник быстро узнает, что жители городка не рады незнакомцам, да и вообще они выходят на улицы лишь по приказу полковника Долархайда, правящего в этой местности железной рукой.

Вскоре странное поведение жителей объясняется. Периодически с неба обрушиваются ужасающие создания, которые забирают все, что им заблагорассудится и держат город в паническом страхе. Главный герой, постепенно вспоминающий о том, что с ним произошло, становится единственной надеждой города на спасение.




Видео: 1024x432 (2.35:1), 23.976 fps, AVC (x264) High@L4.1, ~2117 kbps avg, 0.200 bit/pixel
Аудио: 48 kHz, AC3 Dolby Digital, 3/2 (L,C,R,l,r) + LFE ch, ~384 kbps avg

Релиз группы

Рип от: __


General
Unique ID: 203648627924155830205357604127353729154 (0x99354C8F8A4ED61E975763E495F5F082)
Complete name: D:\Мои рипы\Kovboi.protiv.prisheltzev.2011.D.HDRip.mkv
Format: Matroska
Format version: Version 2
File size: 2.07 GiB
Duration: 1h 58mn
Overall bit rate: 2 507 Kbps
Movie name: Cowboys.&.Aliens.2011.D.HDRip.S.I.D
Encoded date: UTC 2011-12-14 16:32:03
Writing application: mkvmerge v2.9.8 ('C'est le bon') built on Aug 13 2009 12:49:06
Writing library: libebml v0.7.7 + libmatroska v0.8.1

Video
ID: 1
Format: AVC
Format/Info: Advanced Video Codec
Format profile: High@L4.1
Format settings, CABAC: Yes
Format settings, ReFrames: 8 frames
Codec ID: V_MPEG4/ISO/AVC
Duration: 1h 58mn
Bit rate: 2 117 Kbps
Width: 1 024 pixels
Height: 432 pixels
Display aspect ratio: 2.35:1
Frame rate: 23.976 fps
Color space: YUV
Chroma subsampling: 4:2:0
Bit depth: 8 bits
Scan type: Progressive
Bits/(Pixel*Frame): 0.200
Stream size: 1.71 GiB (83%)
Title: RG Films Tfile
Writing library: x264 core 119 r2106 07efeb4
Encoding settings: cabac=1 / ref=8 / deblock=1:-1:-1 / analyse=0x3:0x111 / me=umh / subme=0 / psy=1 / psy_rd=1.00:0.10 / mixed_ref=1 / me_range=16 / chroma_me=1 / trellis=2 / 8x8dct=1 / cqm=0 / deadzone=21,11 / fast_pskip=0 / chroma_qp_offset=-1 / threads=6 / sliced_threads=0 / nr=0 / decimate=1 / interlaced=0 / bluray_compat=0 / constrained_intra=0 / bframes=8 / b_pyramid=2 / b_adapt=2 / b_bias=0 / direct=1 / weightb=1 / open_gop=0 / weightp=2 / keyint=250 / keyint_min=23 / scenecut=40 / intra_refresh=0 / rc_lookahead=40 / rc=abr / mbtree=1 / bitrate=2117 / ratetol=1.0 / qcomp=0.60 / qpmin=0 / qpmax=69 / qpstep=4 / ip_ratio=1.40 / aq=1:1.00
Language: English
Default: Yes
Forced: No

Audio
ID: 2
Format: AC-3
Format/Info: Audio Coding 3
Mode extension: CM (complete main)
Codec ID: A_AC3
Duration: 1h 58mn
Bit rate mode: Constant
Bit rate: 384 Kbps
Channel(s): 6 channels
Channel positions: Front: L C R, Side: L R, LFE
Sampling rate: 48.0 KHz
Bit depth: 16 bits
Compression mode: Lossy
Stream size: 325 MiB (15%)
Title: Дубляж
Language: Russian
Default: Yes
Forced: No








Поделиться:




реклама партнёра


Вернуться к началу
 Профиль Отправить личное сообщение  
 
   Похожие торренты   Автор   Торрент   Размер 
В этой теме нет новых непрочитанных сообщений. Ковбои / The Cowboys [Драма, комедия, приключения, вестерн, 1972] BDRip 720p, Mvo+Sub

salma3

1 | 3

4.63 ГБ

В этой теме нет новых непрочитанных сообщений. Ковбои / Les cowboys [драма, 2015] HDRip, Mvo

salma3

365 | 59

1.37 ГБ

В этой теме нет новых непрочитанных сообщений. Ковбои / Les cowboys [драма, 2015] BDRip 720p, Mvo

salma3

136 | 18

4.24 ГБ

В этой теме нет новых непрочитанных сообщений. Медленный Запад / Slow West (Джон Маклин) [боевик, триллер, вестерн, 2015] HDRip [ColdFilm]

Dracon

0 | 0

1.37 ГБ

В этой теме нет новых непрочитанных сообщений. Мега Акула против Колосса / Mega Shark vs. Kolossus [фантастика, боевик, триллер, ужасы, 2015] HDRip, Avo

salma3

46 | 3

1.2 ГБ

В этой теме нет новых непрочитанных сообщений. Мега Акула против Колосса / Mega Shark vs. Kolossus (Кристофер Рэй) [2015, ужасы, фантастика, боевик, триллер, HDRip] avo

marya111

60 | 3

1.45 ГБ

В этой теме нет новых непрочитанных сообщений. Мега-акула против Меха-акулы / Mega Shark vs. Mecha Shark [фантастика, боевик, триллер, 2014] HDRip, Avo

salma3

508 | 24

1.37 ГБ


Начать новую тему Ответить на тему  [ 1 сообщение ] 




Для Мосгорсуда, Роскомнадзора и рекламодателей:: mosgorsud-torrent[собачка]yandex.ru