Торрент файл
скачать торрент магнет ссылка Добавлен: 22 янв 2012, 14:16
Размер: 2.18 ГБ
Сидеров: 17
Личеров: 9
Автор

СообщениеДобавлено: 22 янв 2012, 14:16 

Не в сети
Супермодератор
Аватара пользователя
Дата регистрации:
11 апр 2010, 18:10
Спасибо: 5802 / 7
Сообщения: 56779
Порождающая огонь / Firestarter

Перевод: Профессиональный (многоголосый, закадровый), cубтитры: Английские, Немецкие (полные, отключаемые)
Формат: DVDRip, MKV, H.264, AC3
Страна: США
Режиссер: Марк Л. Лестер
Жанр: фантастика, триллер
Продолжительность: 01:49:32
Год выпуска: 1984
В ролях: Дэвид Кит, Дрю Бэрримор, Фредди Джонс, Хэзер Локлир, Мартин Шин, Джордж К. Скотт, Арт Карни, Луиза Флетчер, Моузес Ганн, Антонио Фаргас
Описание: Чарли Макги кажется обычной счастливой девочкой восьми лет, пока что-нибудь не разозлит ее или не начнет угрожать ее семье. Тогда Чарли меняется: проявляется ее унаследованная от родителей смертоносная способность-зажигать взглядом все, что она пожелает.
Чарли не всегда может контролировать свою силу и, возможно, когда она вырастет ее могущество будет опасно для всей планеты. Спецслужбы хотят использовать девочку и похищают ее, убивая при этом маму Чарли. Они хотят контролировать девочку… или уничтожить. Ее отец не в силах спасти дочку, но Чарли сумеет позаботиться о себе сама.


Видео: 720x304 (2,35:1), 25,000 fps, MPEG4 AVC (х264), High@L4.1 ~2100 kbps avg, 0.384 bit/pixel
Аудио#1:Русский: 48 kHz,AC-3, 2 ch, ~192.00 kbps avg [Профессиональный (многоголосый, закадровый)]
Аудио#2:Русский: 48 kHz,AC-3, 2 ch, ~192.00 kbps avg [Профессиональный (многоголосый, закадровый)]
Аудио#3:Русский: 48 kHz,AC-3, 2 ch, ~192.00 kbps avg [Профессиональный (многоголосый, закадровый)]
Аудио#4:Русский: 48 kHz,AC-3, 2 ch, ~192.00 kbps avg [Авторский (одноголосый, Андрей Гаврилов)]


Автор РИПа:

Этот фильм известен ещё и под названием «Воспламеняющая взглядом» (так был переведён у нас роман Стивена Кинга).

На роль Чарли МакГи рассматривались Дженнифер Коннелли и Тейлор Нефф.

Первоначально на место режиссера был выбран Джон Карпентер, но из-за кассового провала «Нечто» Карпентера, был замен Марком. Л. Лестером.

Общее
Уникальный идентификатор : 230601113737140878578575835270371908139 (0xAD7C28B53E1298C990E22DEE50309A2B)
Полное имя : f:\Downloads\firestarter_[tfile.ru].mkv
Формат : Matroska
Версия формата : Version 2
Размер файла : 2,18 Гбайт
Продолжительность : 1 ч. 49 м.
Общий поток : 2850 Кбит/сек
Название фильма : Porogdauchaya_ogon_DVD5.Title2.DVDRip
Дата кодирования : UTC 2012-01-04 14:44:51
Программа кодирования : mkvmerge v4.6.0 ('Still Crazy After All These Years') сборка от Mar 10 2011 02:50:32
Библиотека кодирования : libebml v1.2.0 + libmatroska v1.1.0

Видео
Идентификатор : 1
Формат : AVC
Формат/Информация : Advanced Video Codec
Профиль формата : High@L4.1
Параметр CABAC формата : Да
Параметр ReFrames формата : 3 кадра
Режим смешивания : Header stripping
Идентификатор кодека : V_MPEG4/ISO/AVC
Продолжительность : 1 ч. 49 м.
Битрейт : 2100 Кбит/сек
Ширина : 720 пикселей
Высота : 304 пикселя
Соотношение сторон : 2,35:1
Режим частоты кадров : Переменный
Частота кадров : 25,000 кадров/сек
Цветовое пространство : YUV
Субдискретизация насыщенности : 4:2:0
Битовая глубина : 8 бит
Тип развёртки : Прогрессивная
Бит/(Пиксели*Кадры) : 0.384
Размер потока : 1,55 Гбайт (71%)
Библиотека кодирования : x264 core 116 r2019M 9cc407d
Настройки программы : cabac=1 / ref=3 / deblock=1:-1:-1 / analyse=0x3:0x133 / me=hex / subme=7 / psy=1 / psy_rd=1.00:0.15 / mixed_ref=1 / me_range=16 / chroma_me=1 / trellis=1 / 8x8dct=1 / cqm=0 / deadzone=21,11 / fast_pskip=1 / chroma_qp_offset=-3 / threads=8 / sliced_threads=0 / nr=0 / decimate=1 / interlaced=0 / bluray_compat=0 / constrained_intra=0 / bframes=3 / b_pyramid=1 / b_adapt=2 / b_bias=0 / direct=3 / weightb=1 / open_gop=0 / weightp=2 / keyint=250 / keyint_min=25 / scenecut=40 / intra_refresh=0 / rc_lookahead=40 / rc=abr / mbtree=1 / bitrate=2100 / ratetol=1.0 / qcomp=0.60 / qpmin=10 / qpmax=51 / qpstep=4 / vbv_maxrate=9000 / vbv_bufsize=1835 / nal_hrd=none / ip_ratio=1.40 / aq=1:1.00
Язык : English
Default : Да
Forced : Нет

Аудио #1
Идентификатор : 2
Формат : AC-3
Формат/Информация : Audio Coding 3
Расширение режима : CM (complete main)
Режим смешивания : Header stripping
Идентификатор кодека : A_AC3
Продолжительность : 1 ч. 49 м.
Вид битрейта : Постоянный
Битрейт : 192 Кбит/сек
Каналы : 2 канала
Расположение каналов : Front: L R
Частота : 48,0 КГц
Битовая глубина : 16 бит
Метод сжатия : С потерями
Размер потока : 150 Мбайт (7%)
Заголовок : MVO
Язык : Russian
Default : Да
Forced : Нет

Аудио #2
Идентификатор : 3
Формат : AC-3
Формат/Информация : Audio Coding 3
Расширение режима : CM (complete main)
Режим смешивания : Header stripping
Идентификатор кодека : A_AC3
Продолжительность : 1 ч. 49 м.
Вид битрейта : Постоянный
Битрейт : 192 Кбит/сек
Каналы : 2 канала
Расположение каналов : Front: L R
Частота : 48,0 КГц
Битовая глубина : 16 бит
Метод сжатия : С потерями
Размер потока : 150 Мбайт (7%)
Заголовок : MVO
Язык : Russian
Default : Нет
Forced : Нет

Аудио #3
Идентификатор : 4
Формат : AC-3
Формат/Информация : Audio Coding 3
Расширение режима : CM (complete main)
Режим смешивания : Header stripping
Идентификатор кодека : A_AC3
Продолжительность : 1 ч. 49 м.
Вид битрейта : Постоянный
Битрейт : 192 Кбит/сек
Каналы : 2 канала
Расположение каналов : Front: L R
Частота : 48,0 КГц
Битовая глубина : 16 бит
Метод сжатия : С потерями
Размер потока : 150 Мбайт (7%)
Заголовок : MVO
Язык : Russian
Default : Нет
Forced : Нет

Аудио #4
Идентификатор : 5
Формат : AC-3
Формат/Информация : Audio Coding 3
Расширение режима : CM (complete main)
Режим смешивания : Header stripping
Идентификатор кодека : A_AC3
Продолжительность : 1 ч. 49 м.
Вид битрейта : Постоянный
Битрейт : 192 Кбит/сек
Каналы : 2 канала
Расположение каналов : Front: L R
Частота : 48,0 КГц
Битовая глубина : 16 бит
Метод сжатия : С потерями
Размер потока : 150 Мбайт (7%)
Заголовок : AVO
Язык : Russian
Default : Нет
Forced : Нет

Текст #1
Идентификатор : 6
Формат : UTF-8
Идентификатор кодека : S_TEXT/UTF8
Идентификатор кодека/Информация : UTF-8 Plain Text
Язык : English
Default : Да
Forced : Нет

Текст #2
Идентификатор : 7
Формат : VobSub
Режим смешивания : zlib
Идентификатор кодека : S_VOBSUB
Идентификатор кодека/Информация : The same subtitle format used on DVDs
Язык : English
Default : Нет
Forced : Нет

Текст #3
Идентификатор : 8
Формат : VobSub
Режим смешивания : zlib
Идентификатор кодека : S_VOBSUB
Идентификатор кодека/Информация : The same subtitle format used on DVDs
Язык : German
Default : Нет
Forced : Нет
















Поделиться:




реклама партнёра


Вернуться к началу
 Профиль Отправить личное сообщение  
 
   Похожие торренты   Автор   Торрент   Размер 
В этой теме нет новых непрочитанных сообщений. Охота на роботов / Runaway [Фантастика, триллер, 1984] DVDRip, Dvo

salma3

1 | 1

1.46 ГБ

В этой теме нет новых непрочитанных сообщений. Класс 1984 / Class of 1984 [триллер, драма, криминал, 1982] DVDRip, Avo

salma3

78 | 8

1.37 ГБ

В этой теме нет новых непрочитанных сообщений. Драконов огонь / Dragon Fire [Фантастика, боевик, драма, 1993] DVDRip, Avo

salma3

21 | 8

1.46 ГБ

В этой теме нет новых непрочитанных сообщений. Навесной огонь / Затяжной выстрел / Hangfire [Боевик, триллер, 1991] DVDRip, Dvo

salma3

1 | 68

1.46 ГБ

В этой теме нет новых непрочитанных сообщений. Перекрестный огонь / Bad Country [триллер, драма, детектив, боевик, криминал, 2014] DVDRip, Mvo [Лицензия]

Dracon

1456 | 57

1.46 ГБ

В этой теме нет новых непрочитанных сообщений. Класс 1984 / Class of 1984 [боевик, триллер, драма, криминал, 1982] BDRip 720p, Avo

salma3

13 | 16

4.67 ГБ

В этой теме нет новых непрочитанных сообщений. Класс 1984 / Class of 1984 [боевик, триллер, драма, криминал, 1982] BDRemux 1080p, Avo+Sub

salma3

10 | 2

28.28 ГБ


Начать новую тему Ответить на тему  [ 1 сообщение ] 




Для Мосгорсуда, Роскомнадзора и рекламодателей:: mosgorsud-torrent[собачка]yandex.ru