Торрент файл
скачать торрент магнет ссылка Добавлен: 22 янв 2012, 14:14
Размер: 2.5 ГБ
Сидеров: 35
Личеров: 14
Автор

СообщениеДобавлено: 22 янв 2012, 14:14 

Не в сети
Супермодератор
Аватара пользователя
Дата регистрации:
11 апр 2010, 18:10
Спасибо: 5801 / 7
Сообщения: 56779
Бегущий человек / The Running Man

Перевод: Профессиональный (многоголосый, закадровый)
cубтитры: Русские, Английские (полные, отключаемые)
Формат: HDRip, MKV, H.264, AC3
Страна: США
Режиссер: Пол Майкл Глейзер
Жанр: фантастика, боевик, триллер
Продолжительность: 01:40:43
Год выпуска: 1987
В ролях: Арнольд Шварценеггер, Мария Кончита Алонсо, Яфет Котто, Джим Браун, Джесси Вентура, Эрланд ван Лидт, Марвин Дж. МакИнтайр, Гас Ретвиш, Мик Флитвуд
Описание: К 2017 году излюбленным развлечением для жителей Америки, превратившейся в полувоенное государство, стало садистское телешоу «Бегущий человек», участники которого-невинные жертвы-не имели ни единого шанса на выживание.
Среди них оказался полицейский Бэн Ричардс (Арнольд Шварценеггер), отказавшийся расстрелять безоружную толпу голодных людей. Теперь вместе с собратьями по несчастью ему предстоит принять участие в безумной гонке со смертью, сразиться с непобедимыми монстрами-Профессором Крио, Бензопилой, Шаровой Молнией и Динамо, и отомстить бесчеловечному хозяину шоу.


Видео: 1280x720 (16:9), 23,976 fps, MPEG4 AVC (х264), High@L4.1 ~2343 kbps avg, 0.106 bit/pixel
Аудио#1:Русский: 48 kHz,AC-3, 6 ch, ~384.00 kbps avg [Профессиональный (многоголосый, закадровый, Карусель)]
Аудио#2:Русский: 48 kHz,AC-3, 6 ch, ~384.00 kbps avg [Профессиональный (двухголосый, закадровый, R5)]
Аудио#2:Русский: 48 kHz,AC-3, 6 ch, ~384.00 kbps avg [Внешним файлом:Авторский (одноголосый, Андрей Гаврилов)]


Автор РИПа:
Фильм снят по произведению Стивена Кинга

Ричард Доусон, игравший создателя и ведущего телешоу «Самая опасная игра» Дэймона Киллиана в реальной жизни также является ведущим американского игрового шоу «Семейная свара» (Family Feud).

Танцевальные номера для девушек из шоу ставила известная поп-певица и танцовщица Пола Абдул (Paula Abdul).

В этой картине, как и во многих других, Арнольд Шварцененггер также произносит свою коронную фразу: «Я вернусь!» (I’ll be back!).

Изначально на роль Бена Ричардса намечался Кристофер Ривз (Christopher Reeves).

Ценители кино заметили даже такую мелкую оплошность создателей фильма, как несоответствие географических координат. А именно. Если в вертолете, летящим над Бейкерсфилдом, показаны координаты – 45 градусов северной широты и 19 градусов восточной долготы, то в реальности эта местность имеет координаты – 35,3 и 119 соответственно.

Одним из кандидатов на главную роль был Дольф Лундгрен.

Писатель Роберт Шекли подал в суд на создателей картины, обвиняя их в плагиате.

Стивен Кинг, по слухам, остался недоволен постановкой и исполнителем главной роли.

Впервые за всю свою кинокарьеру в этом фильме Шварценеггер появился с бородой на лице (В сцене, когда с его шеи снимают ошейник со взрывчаткой, а также, в предшествующей сцене побега из тюрьмы). Арни с бородой ещё был в начале фильма «Детсадовский полицейский» и в фильме «Конан-варвар», сразу перед финальными титрами.

Код, деактивирующий ошейники, — 653-9X.

Стивен Кинг запретил указывать свое имя в рекламе и на обложке фильма.

Общее
Уникальный идентификатор : 188631494125254875880613162222625656472 (0x8DE91AB357692B63BB0CA19ACFEA8E9
Полное имя : f:\Downloads\the_running_ran_[tfile.ru]\the_running_ran_[tfile.ru].mkv
Формат : Matroska
Версия формата : Version 2
Размер файла : 2,23 Гбайт
Продолжительность : 1 ч. 40 м.
Общий поток : 3174 Кбит/сек
Дата кодирования : UTC 2012-01-13 21:50:25
Программа кодирования : mkvmerge v4.6.0 ('Still Crazy After All These Years') сборка от Mar 10 2011 02:50:32
Библиотека кодирования : libebml v1.2.0 + libmatroska v1.1.0

Видео
Идентификатор : 1
Формат : AVC
Формат/Информация : Advanced Video Codec
Профиль формата : High@L4.1
Параметр CABAC формата : Да
Параметр ReFrames формата : 3 кадра
Режим смешивания : Header stripping
Идентификатор кодека : V_MPEG4/ISO/AVC
Продолжительность : 1 ч. 40 м.
Битрейт : 2343 Кбит/сек
Ширина : 1280 пикселей
Высота : 720 пикселей
Соотношение сторон : 16:9
Режим частоты кадров : Переменный
Частота кадров : 23,976 кадра/сек
Цветовое пространство : YUV
Субдискретизация насыщенности : 4:2:0
Битовая глубина : 8 бит
Тип развёртки : Прогрессивная
Бит/(Пиксели*Кадры) : 0.106
Размер потока : 1,65 Гбайт (74%)
Библиотека кодирования : x264 core 116 r2019M 9cc407d
Настройки программы : cabac=1 / ref=3 / deblock=1:-1:-1 / analyse=0x3:0x133 / me=hex / subme=7 / psy=1 / psy_rd=1.00:0.15 / mixed_ref=1 / me_range=16 / chroma_me=1 / trellis=1 / 8x8dct=1 / cqm=0 / deadzone=21,11 / fast_pskip=1 / chroma_qp_offset=-3 / threads=8 / sliced_threads=0 / nr=0 / decimate=1 / interlaced=0 / bluray_compat=0 / constrained_intra=0 / bframes=3 / b_pyramid=1 / b_adapt=2 / b_bias=0 / direct=3 / weightb=1 / open_gop=0 / weightp=2 / keyint=230 / keyint_min=23 / scenecut=40 / intra_refresh=0 / rc_lookahead=40 / rc=crf / mbtree=1 / crf=22.0 / qcomp=0.60 / qpmin=10 / qpmax=51 / qpstep=4 / vbv_maxrate=31250 / vbv_bufsize=31250 / crf_max=30.0 / nal_hrd=none / ip_ratio=1.40 / aq=1:1.00
Язык : English
Default : Да
Forced : Нет

Аудио #1
Идентификатор : 2
Формат : AC-3
Формат/Информация : Audio Coding 3
Расширение режима : CM (complete main)
Режим смешивания : Header stripping
Идентификатор кодека : A_AC3
Продолжительность : 1 ч. 40 м.
Вид битрейта : Постоянный
Битрейт : 384 Кбит/сек
Каналы : 6 каналов
Расположение каналов : Front: L C R, Side: L R, LFE
Частота : 48,0 КГц
Битовая глубина : 16 бит
Метод сжатия : С потерями
Размер потока : 277 Мбайт (12%)
Заголовок : MVO
Язык : Russian
Default : Да
Forced : Нет

Аудио #2
Идентификатор : 3
Формат : AC-3
Формат/Информация : Audio Coding 3
Расширение режима : CM (complete main)
Режим смешивания : Header stripping
Идентификатор кодека : A_AC3
Продолжительность : 1 ч. 40 м.
Вид битрейта : Постоянный
Битрейт : 384 Кбит/сек
Каналы : 6 каналов
Расположение каналов : Front: L C R, Side: L R, LFE
Частота : 48,0 КГц
Битовая глубина : 16 бит
Метод сжатия : С потерями
Размер потока : 277 Мбайт (12%)
Заголовок : DVO
Язык : Russian
Default : Нет
Forced : Нет

Текст #1
Идентификатор : 4
Формат : UTF-8
Идентификатор кодека : S_TEXT/UTF8
Идентификатор кодека/Информация : UTF-8 Plain Text
Язык : Russian
Default : Да
Forced : Нет

Текст #2
Идентификатор : 5
Формат : UTF-8
Идентификатор кодека : S_TEXT/UTF8
Идентификатор кодека/Информация : UTF-8 Plain Text
Язык : English
Default : Нет
Forced : Нет


















Поделиться:




реклама партнёра


Вернуться к началу
 Профиль Отправить личное сообщение  
 
   Похожие торренты   Автор   Торрент   Размер 
В этой теме нет новых непрочитанных сообщений. Бегущий в лабиринте / The Maze Runner [Фантастика, Боевик, Триллер, Детектив, 2014] HDRip, Dub [iTunes]

Dracon

20 | 2

1.46 ГБ

В этой теме нет новых непрочитанных сообщений. Бегущий в лабиринте / The Maze Runner [Фантастика, Боевик, Триллер, Детектив, 2014] HDRip, Dub [iTunes]

Dracon

49 | 2

2.05 ГБ

В этой теме нет новых непрочитанных сообщений. Бегущий в лабиринте: Испытание огнём / Maze Runner: The Scorch Trials (Уэс Болл) [фантастика, боевик, триллер, 2015] HDRip, dub [Звук с TS]

Dracon

587 | 155

2.06 ГБ

В этой теме нет новых непрочитанных сообщений. Бегущий в лабиринте: Испытание огнём / Maze Runner: The Scorch Trials (Уэс Болл) [фантастика, боевик, триллер, 2015] HDRip, Dub [Лицензия]

Dracon

7199 | 639

2.05 ГБ

В этой теме нет новых непрочитанных сообщений. Бегущий в лабиринте: Испытание огнём / Maze Runner: The Scorch Trials (Уэс Болл) [фантастика, боевик, триллер, 2015] HDRip-AVC, Dub [Лицензия]

Dracon

4584 | 444

2.67 ГБ

В этой теме нет новых непрочитанных сообщений. Бегущий в лабиринте: Испытание огнём / Maze Runner: The Scorch Trials (Уэс Болл) [фантастика, боевик, триллер, 2015] HDRip, dub [Звук с TS]

Dracon

1925 | 448

1.37 ГБ

В этой теме нет новых непрочитанных сообщений. Бегущий в лабиринте: Испытание огнём / Maze Runner: The Scorch Trials (Уэс Болл) [фантастика, боевик, триллер, 2015] HDRip, Dub [Лицензия]

Dracon

7174 | 1850

1.37 ГБ


Начать новую тему Ответить на тему  [ 1 сообщение ] 




Для Мосгорсуда, Роскомнадзора и рекламодателей:: mosgorsud-torrent[собачка]yandex.ru