Торрент файл
скачать торрент магнет ссылка Добавлен: 22 янв 2012, 14:14
Размер: 2.07 ГБ
Сидеров: 7
Личеров: 4
Автор

СообщениеДобавлено: 22 янв 2012, 14:14 

Не в сети
Супермодератор
Аватара пользователя
Дата регистрации:
11 апр 2010, 18:10
Спасибо: 5995 / 7
Сообщения: 56686
[b]Огненный лис / Firefox[/b]


Перевод: Профессиональный (многоголосый закадровый) [Премьер Видеофильм]
Субтитры: отсутствуют
Формат: HDRip-AVC, MKV, H.264, AC3

Страна: США

Режиссер: Клинт Иствуд
Жанр: фантастика, боевик, триллер
Продолжительность: 02:04:41
Год выпуска: 1982

В ролях: Клинт Иствуд, Фредди Джонс, Дэвид Хаффман, Уоррен Кларк, Рональд Лейси, Кеннет Колли, Клаус Лёвич, Найджел Хоторн, Стефан Шнабель, Томас Хилл, Клайв Меррисон, Кай Вулфф, Димитра Арлисс, Остин Уиллис, Майкл Карри, Джеймс Стейли, Уорд Костильо, Алан Тилверн, Оливер Коттон, Бернард Беренс, Ричард Дэрр, Вуди Еней, Бернард Эрхард, Хью Фрейзер, Дэвид Гант, Джон Грилло, Нил Хант, Винсент Дж. Исаак, Алексей Явдокимов, Вольф Калер, Юджин Липински, Филлип Литтелл, Курт Лоуэнс, Лев Мэйлер, Фритц Мэйнс, Дэвид Мейерс, Альфредо Михелсон, Джордж Оррисон, Оливье Пьер, Гриша Плоткин, Джордж Правда, Джон Ратценбергер, Лэнс Розен, Юджин Шерер, Уорвик Симс, Майк Сперо, Малкольм Сторри, Крис Винфилд, Джон Йэтс, Александр Зейл, Игорь Зацепин, Константин Златев, Ларри Гуардино.

Описание: Как адская летучая мышь проносится он в небе со скоростью, в шесть раз превышающей скорость звука. Словно мерцающий призрак, остаётся он невидимым для самых чувствительных радаров. Будто смертельно ядовитая кобра, он поражает противника своими ювелирно точными ракетами. Он — истребитель МИГ-31: самое смертельное оружие, когда-либо созданное человеком. Этот сверхсекретный самолёт был сделан в СССР и получил кодовое название «Огненный лис». Чтобы баланс сил в ходе Холодной Войны не был нарушен и наши с вами соотечественники не получили преимущества, американцы решают похитить это чудо техники.



Видео: 1024x432 (2.35:1), 23.976 fps, AVC MPEG-4 High@L4.1 ~1791 kbps avg, 0.169 bit/pixel
Аудио #1: русский48 kHz, AC3 Dolby Digital, 2/0 (L, R) ch, ~192 kbps avg [Профессиональный (многоголосый закадровый)]
Аудио #2: английский48 kHz, AC3 Dolby Digital, 3/2 (L,C,R,l,r) + LFE ch, ~384 kbps avg [оригинал]

Рип от:


General
Unique ID: 241475556222534863103106609715551201590 (0xB5AA801DED63762EA0DD202A8DA4E936)
Complete name: F:\Рипы от папы Карло\Firefox.1982.P.HDRip.mkv
Format: Matroska
Format version: Version 2
File size: 2.07 GiB
Duration: 2h 4mn
Overall bit rate: 2 378 Kbps
Movie name: Firefox.S.I.D
Encoded date: UTC 2012-01-17 12:49:40
Writing application: mkvmerge v2.9.8 ('C'est le bon') built on Aug 13 2009 12:49:06
Writing library: libebml v0.7.7 + libmatroska v0.8.1

Video
ID: 1
Format: AVC
Format/Info: Advanced Video Codec
Format profile: High@L4.1
Format settings, CABAC: Yes
Format settings, ReFrames: 8 frames
Codec ID: V_MPEG4/ISO/AVC
Duration: 2h 4mn
Bit rate: 1 791 Kbps
Width: 1 024 pixels
Height: 432 pixels
Display aspect ratio: 2.35:1
Frame rate: 23.976 fps
Color space: YUV
Chroma subsampling: 4:2:0
Bit depth: 8 bits
Scan type: Progressive
Bits/(Pixel*Frame): 0.169
Stream size: 1.53 GiB (74%)
Writing library: x264 core 119 r2106 07efeb4
Encoding settings: cabac=1 / ref=8 / deblock=1:-1:-1 / analyse=0x3:0x131 / me=umh / subme=0 / psy=1 / psy_rd=1.00:0.10 / mixed_ref=1 / me_range=16 / chroma_me=1 / trellis=2 / 8x8dct=1 / cqm=0 / deadzone=21,11 / fast_pskip=0 / chroma_qp_offset=-1 / threads=6 / sliced_threads=0 / nr=0 / decimate=1 / interlaced=0 / bluray_compat=0 / constrained_intra=0 / bframes=6 / b_pyramid=2 / b_adapt=2 / b_bias=0 / direct=1 / weightb=1 / open_gop=0 / weightp=2 / keyint=250 / keyint_min=23 / scenecut=40 / intra_refresh=0 / rc_lookahead=40 / rc=abr / mbtree=1 / bitrate=1791 / ratetol=1.0 / qcomp=0.60 / qpmin=0 / qpmax=69 / qpstep=4 / ip_ratio=1.40 / aq=1:1.00
Language: English
Default: Yes
Forced: No

Audio #1
ID: 2
Format: AC-3
Format/Info: Audio Coding 3
Mode extension: CM (complete main)
Codec ID: A_AC3
Duration: 2h 4mn
Bit rate mode: Constant
Bit rate: 192 Kbps
Channel(s): 2 channels
Channel positions: Front: L R
Sampling rate: 48.0 KHz
Bit depth: 16 bits
Compression mode: Lossy
Stream size: 171 MiB (8%)
Title: многоголосый (Премьер Видеофильм)
Language: Russian
Default: Yes
Forced: No

Audio #2
ID: 3
Format: AC-3
Format/Info: Audio Coding 3
Mode extension: CM (complete main)
Codec ID: A_AC3
Duration: 2h 4mn
Bit rate mode: Constant
Bit rate: 384 Kbps
Channel(s): 6 channels
Channel positions: Front: L C R, Side: L R, LFE
Sampling rate: 48.0 KHz
Bit depth: 16 bits
Compression mode: Lossy
Stream size: 342 MiB (16%)
Language: English
Default: No
Forced: No








Поделиться:



Вернуться к началу
 Профиль Отправить личное сообщение  
 
   Похожие торренты   Автор   Торрент   Размер 
В этой теме нет новых непрочитанных сообщений. Огненный город: Последние дни / Fire City: End of Days [ужасы, фэнтези, триллер, 2015] HDRip, Avo

salma3

113 | 2

1.4 ГБ

В этой теме нет новых непрочитанных сообщений. 48 часов / 48 Hrs. [Боевик, триллер, драма, 1982] HDRip-AVC, Mvo

salma3

34 | 4

746.28 МБ

В этой теме нет новых непрочитанных сообщений. Класс 1984 / Class of 1984 [боевик, триллер, драма, 1982] HDRip, Avo

salma3

30 | 8

745.19 МБ

В этой теме нет новых непрочитанных сообщений. Крысы / Deadly Eyes [Ужасы, фантастика, 1982] HDRip, Avo

salma3

2 | 1

744.63 МБ

В этой теме нет новых непрочитанных сообщений. Инопланетянин / E.T. the Extra-Terrestrial [фантастика, фэнтези, драма, 1982] HDRip-AVC, Dub

salma3

35 | 18

745.92 МБ

В этой теме нет новых непрочитанных сообщений. Неукротимая сила / Raw Force [боевик, приключения, 1982] HDRip, Avo

salma3

92 | 3

744.85 МБ

В этой теме нет новых непрочитанных сообщений. Белая собака / White Dog [триллер, драма, 1982] HDRip, Avo

salma3

17 | 2

1.45 ГБ


Начать новую тему Ответить на тему  [ 1 сообщение ] 




Для Мосгорсуда, Роскомнадзора и рекламодателей:: mosgorsud-torrent[собачка]yandex.ru
cron