Торрент файл
скачать торрент магнет ссылка Добавлен: 22 янв 2012, 13:15
Размер: 1.46 ГБ
Сидеров: 32
Личеров: 6
Автор

СообщениеДобавлено: 22 янв 2012, 13:15 

Не в сети
Супермодератор
Аватара пользователя
Дата регистрации:
11 апр 2010, 18:10
Спасибо: 5799 / 7
Сообщения: 56779
Белый Клык / White Fang

Перевод: Профессиональный (многоголосый, закадровый), cубтитры: отсутствуют
Формат: HDRip-AVC, MKV, H.264, AC3
Страна: США
Режиссер: Рэндал Клайзер
Жанр: драма, приключения
Продолжительность: 01:48:45
Год выпуска: 1991
В ролях: Клаус Мария Брандауер, Этан Хоук, Сеймур Кэссел, Сюзан Хоган, Джеймс Римар, Билл Моусли, Клинт Йонгрин, Пий Сэвадж, Аарон Хотч, Чарльз Джимми ст.
Описание: История о волке Белый клык, который остался сиротой, после того как охотник убил его мать и юноше по имени Джек, прибывшем на Клондайк во времена Золотой Лихорадки на участок, оставленный ему в наследство отцом. Джек и Белый Клык то встречаются, то расстаются, то вновь обретают друг друга.
Живая история о существовании бок о бок людей и животных в экстремальных условиях северных широт, где главными критериями выживания служат обыкновенное доверие и трудолюбие. Весь драматизм истории происходит вокруг молодого золотоискателя-энтузиаста и волка-полукровки, случайное знакомство которых переросло в крепкую, завязанную сотнями узлов, нечеловеческую дружбу.
Эта захватывающая история дружбы мальчика и волка будет интересна мальчишкам, увлекающимся приключениями.




Видео: 720x576 (1.25:1), 23.976 fps, AVC (х264), High@L3.1, ~1 478 Kbps avg, 0.144 bit/pixel
Аудио: 48.0 KHz, AC3, 6 ch (Front: L C R, Side: L R, LFE), 448 Kbps avg
General
Unique ID : 207398917512238311740363444762429797423 (0x9C07941CF81025338D79D016378AB42F)
Complete name : F:\...\Torrent\DVD Rip\Oeeuiu\white_fang_[tfile.ru].mkv
Format : Matroska
File size : 1.46 GiB
Duration : 1h 48mn
Overall bit rate : 1 917 Kbps
Encoded date : UTC 2011-02-23 22:17:48
Writing application : mkvmerge v3.3.0 ('Language') built on Mar 24 2010 14:59:24
Writing library : libebml v0.8.0 + libmatroska v0.9.0
Video #1
ID : 1
Format : AVC
Format/Info : Advanced Video Codec
Format profile : High@L3.1
Format settings, CABAC : Yes
Format settings, ReFrames : 8 frames
Muxing mode : Container profile=Unknown@3.1
Codec ID : V_MPEG4/ISO/AVC
Duration : 1h 48mn
Bit rate : 1 430 Kbps
Nominal bit rate : 1 478 Kbps
Width : 720 pixels
Height : 576 pixels
Display aspect ratio : 16:9
Frame rate : 23.976 fps
Standard : PAL
Resolution : 8 bits
Colorimetry : 4:2:0
Scan type : Progressive
Bits/(Pixel*Frame) : 0.144
Stream size : 1.09 GiB (75%)
Writing library : x264 core 92 r1510 33d382a

Audio #1
ID : 2
Format : AC-3
Format/Info : Audio Coding 3
Format_Settings_ModeExtension : CM (complete main)
Codec ID : A_AC3
Duration : 1h 48mn
Bit rate mode : Constant
Bit rate : 448 Kbps
Channel(s) : 6 channels
Channel positions : Front: L C R, Side: L R, LFE
Sampling rate : 48.0 KHz
Stream size : 349 MiB (23%)




Поделиться:




реклама партнёра


Вернуться к началу
 Профиль Отправить личное сообщение  
 
   Похожие торренты   Автор   Торрент   Размер 
В этой теме нет новых непрочитанных сообщений. Белый шторм / The White Storm [криминал, драма, боевик, 2013] HDRip, Avo

salma3

134 | 7

1.46 ГБ

В этой теме нет новых непрочитанных сообщений. Белый шквал / White Squall [Драма, приключения, 1996] BDRip 720p, Mvo+Avo+Sub

salma3

10 | 5

6.19 ГБ

В этой теме нет новых непрочитанных сообщений. Белый призрак / White Ghost [боевик, приключения, военный, 1988] BDRemux 1080р, Mvo

salma3

22 | 10

20.8 ГБ

В этой теме нет новых непрочитанных сообщений. Белый ангел / White Angel [Триллер, драма, 1994] DVDRip, Dvo

salma3

26 | 2

1.45 ГБ

В этой теме нет новых непрочитанных сообщений. Белый олеандр / White oleander [Драма, экранизация, 2002] WEB-DL 720p, Dub+Sub

salma3

120 | 31

3.82 ГБ

В этой теме нет новых непрочитанных сообщений. Белая собака / Белый пес / White Dog [Триллер, драма, 1982] BDRip 720p, Avo+Sub

salma3

13 | 3

4.09 ГБ

В этой теме нет новых непрочитанных сообщений. Белый шторм / The White Storm [криминал, драма, боевик, 2013] BDRip 720p, Avo

Dracon

30 | 16

7.99 ГБ


Начать новую тему Ответить на тему  [ 1 сообщение ] 




Для Мосгорсуда, Роскомнадзора и рекламодателей:: mosgorsud-torrent[собачка]yandex.ru