Торрент файл
скачать торрент магнет ссылка Добавлен: 22 янв 2012, 13:14
Размер: 2.39 ГБ
Сидеров: 7
Личеров: 5
Автор

СообщениеДобавлено: 22 янв 2012, 13:14 

Не в сети
Супермодератор
Аватара пользователя
Дата регистрации:
11 апр 2010, 18:10
Спасибо: 5802 / 7
Сообщения: 56779
Тень волка / Shadow of the Wolf

Перевод: Профессиональный (двухголосый), cубтитры: отсутствуют
Формат: HDTVRip, MKV, H.264, AC3
Страна: Канада, Франция
Режиссер: Жак Дорфманн, Пьер Гарчин
Жанр: приключения
Продолжительность: 01:45:01
Год выпуска: 1992
В ролях: Лу Дайэмонд Филлипс, Тосиро Мифунэ, Дженнифер Тилли, Бернар-Пьер Доннадьё, Дональд Сазерленд, Николас Кэмпбелл, Рауль Трухильо, Калинго Тукалак, Джоби Арнайтук, Тамусси Сивуарапик
Описание: Действие происходит на севере Канады в 1930-х годах. Племя эскимосов (или, как они сами себя называют, инуиты) живёт в тундре своей традиционной жизнью, но в неё всё больше проникает «белый человек». Белые люди скупают у инуитов шкуры, добытые на охоте, а взамен продают оружие, соль, спиртное. Инуиты сами не заметили, как оказались в зависимости от «белых людей», они больше не способны обходится без них и их товаров.

Видео: 1280x544 (2,35:1), 25 fps, MPEG4 AVC (х264), Main@L3.0 ~ 2422 kbps avg, 0.139 bit/pixel
Аудио#1:Русский: 48 kHz, AC-3, 2 ch, ~192.00 kbps avg [Профессиональный (двухголосый)(НТВ+)]
Аудио#2:Русский: 48 kHz, AC-3, 2 ch, ~192.00 kbps avg [Профессиональный (двухголосый)(НТВ+ MIX)]
Аудио#3:Английский: 48 kHz, AC-3, 2 ch, ~384.00 kbps avg [Оригинал]

Автор РИПа:
Общее
Уникальный идентификатор : 221739542402936890795856321857399419923 (0xA6D17B824AD964388F683F1C7F7DF413)
Полное имя : f:\Downloads\shadow_of_the_wolf_[tfile.ru].mkv
Формат : Matroska
Размер файла : 2,39 Гбайт
Продолжительность : 1 ч. 45 м.
Общий поток : 3255 Кбит/сек
Название фильма : Shadow of the Wolf (1992)
Дата кодирования : UTC 2011-07-15 04:00:09
Программа кодирования : mkvmerge v4.6.0 ('Still Crazy After All These Years') сборка от Mar 10 2011 02:50:32
Библиотека кодирования : libebml v1.2.0 + libmatroska v1.1.0

Видео
Идентификатор : 1 1280
Формат : AVC
Формат/Информация : Advanced Video Codec
Профиль формата : Main@L3.0
Параметр CABAC формата : Да
Параметр ReFrames формата : 1 кадр
Параметры GOP формата : M=1, N=12
Режим смешивания : Header stripping
Идентификатор кодека : V_MPEG4/ISO/AVC
Продолжительность : 1 ч. 45 м.
Битрейт : 2422 Кбит/сек
Ширина : 1280 пикс.
Высота : 544 пикс.
Соотношение сторон : 2,35:1
Частота кадров : 25,000 кадр/сек
Цветовое пространство : YUV
Подвыборка цветности : 4:2:0
Битовая глубина : 8 бит
Тип развёртки : Прогрессивная
Бит/(Пиксели*Кадры) : 0.139
Размер потока : 1,78 Гбайт (74%)
Заголовок : Shadow of the Wolf (1992)
Язык : English

Аудио #1
Идентификатор : 2
Формат : AC-3
Формат/Информация : Audio Coding 3
Расширение режима : CM (complete main)
Режим смешивания : Header stripping
Идентификатор кодека : A_AC3
Продолжительность : 1 ч. 45 м.
Вид битрейта : Постоянный
Битрейт : 192 Кбит/сек
Каналы : 2 канала
Расположение каналов : Front: L R
Частота : 48,0 КГц
Битовая глубина : 16 бит
Метод сжатия : С потерями
Размер потока : 144 Мбайт (6%)
Заголовок : DVO (NTV+)
Язык : Russian

Аудио #2
Идентификатор : 3
Формат : AC-3
Формат/Информация : Audio Coding 3
Расширение режима : CM (complete main)
Режим смешивания : Header stripping
Идентификатор кодека : A_AC3
Продолжительность : 1 ч. 45 м.
Вид битрейта : Постоянный
Битрейт : 192 Кбит/сек
Каналы : 2 канала
Расположение каналов : Front: L R
Частота : 48,0 КГц
Битовая глубина : 16 бит
Метод сжатия : С потерями
Размер потока : 144 Мбайт (6%)
Заголовок : DVO (NTV+ MIX)
Язык : Russian

Аудио #3
Идентификатор : 4
Формат : AC-3
Формат/Информация : Audio Coding 3
Профиль формата : Dolby Digital
Расширение режима : CM (complete main)
Режим смешивания : Header stripping
Идентификатор кодека : A_AC3
Продолжительность : 1 ч. 45 м.
Вид битрейта : Постоянный
Битрейт : 384 Кбит/сек
Каналы : 2 канала
Расположение каналов : Front: L R
Частота : 48,0 КГц
Битовая глубина : 16 бит
Метод сжатия : С потерями
Размер потока : 288 Мбайт (12%)
Заголовок : English
Язык : English










Поделиться:




реклама партнёра


Вернуться к началу
 Профиль Отправить личное сообщение  
 
   Похожие торренты   Автор   Торрент   Размер 
В этой теме нет новых непрочитанных сообщений. Тень волка / Shadow of the Wolf [Приключения, 1992] HDTV 1080i, Dvo [НТВ+]

salma3

10 | 1

4.67 ГБ

В этой теме нет новых непрочитанных сообщений. Nat Geo Wild: Пума против волка / Cougar vs Wolf [Документальный, 2013] HDTVRip, Avo

salma3

22 | 5

700.24 МБ

В этой теме нет новых непрочитанных сообщений. Тотем волка / Wolf Totem (Жан-Жак Анно) [Приключения, 2015] HDRip [Студия Пиратского Дубляжа]

Dracon

611 | 18

1.46 ГБ

В этой теме нет новых непрочитанных сообщений. Тотем волка / Wolf Totem (Жан-Жак Анно) [Приключения, 2015] BDRip 720p [Студия Пиратского Дубляжа]

Dracon

23 | 7

9.08 ГБ

В этой теме нет новых непрочитанных сообщений. Тень / The Shadow [боевик, фэнтези, приключения, 1994] HDRip, Mvo

salma3

0 | 2

1.46 ГБ

В этой теме нет новых непрочитанных сообщений. Тень над Месой / Shadow on the Mesa [Боевик, вестерн, приключения, 2013] WEB-DLRip, Mvo

salma3

393 | 7

1.37 ГБ

В этой теме нет новых непрочитанных сообщений. Время волка / The Time of the Wolf [драма, 2002] DVDRip, Mvo

salma3

33 | 3

1.45 ГБ


Начать новую тему Ответить на тему  [ 1 сообщение ] 




Для Мосгорсуда, Роскомнадзора и рекламодателей:: mosgorsud-torrent[собачка]yandex.ru