Торрент файл
скачать торрент магнет ссылка Добавлен: 22 янв 2012, 13:14
Размер: 1.46 ГБ
Сидеров: 16
Личеров: 9
Автор

СообщениеДобавлено: 22 янв 2012, 13:14 

Не в сети
Супермодератор
Аватара пользователя
Дата регистрации:
11 апр 2010, 18:10
Спасибо: 5802 / 7
Сообщения: 56779
Смерч / Twister


Перевод: Профессиональный (полное дублирование), cубтитры: отсутствуют
Формат: HDRip-AVC, MKV, H.264, AC3
Страна: США
Режиссер: Ян де Бонт
Жанр: боевик, триллер, драма, приключения
Продолжительность: 01:53:03
Год выпуска: 1996

В ролях: Хелен Хант, Билл Пэкстон, Кэри Элвис, Джэми Герц, Филип Сеймур Хоффман, Луис Смит, Алан Рак, Шон Уэйлен, Скотт Томсон, Тодд Филд

Описание: Поражающий воображение, снятый с большим размахом и дорогостоящими спецэффектами фильм - катастрофа, в создании которого принимали участие такие мастера кассовых кинолент, как режиссер Ян Де Бонт (`Скорость`), сценарист Майкл Крайтон (`Конго`, `Парк юрского периода`, режиссер фильмов `Мир Дикого Запада`, `Кома`, `Охотник на роботов`) и легендарный Стивен Спилберг - здесь он выступил в качестве продюсера. Рушащиеся, словно карточные домики, здания, разорванные линии электропередач, поднятые в воздух автомобили и животные, гибнущие люди... Мелкими и незначительными оказываются личные неурядицы героев перед лицом разбушевавшейся стихии. В отчаянный поединок с грозным и малоизученным явлением природы вступают ученые - метеорологи... `Картина штормовой силы! Спецэффекты создают потрясающее зрелище!` (Джон Мэслин, `Нью - Йорк Таймс`).



Видео: 1024 x 416 (2.46:1), 23.976 fps, AVC, х264, High@L4.1, ~ 1457 Kbps, 0.143 bit/pixel
Аудио: 48 kHz, AC3 Dolby Digital, 3/2 (L,C,R,l,r) + LFE ch, ~384 kbps


Рип: jeenart

General
Unique ID: 242548200853912092308128653073409918447 (0xB679159490C5CB6FA1D1CB93E1AC45EF)
Complete name: F:\Мои релизы\Все релизы 10\smerch_[tfile.ru].mkv
Format: Matroska
File size: 1.46 GiB
Duration: 1h 53mn
Overall bit rate: 1 843 Kbps
Encoded date: UTC 2011-07-19 16:01:34
Writing application: mkvmerge v4.6.0 ('Still Crazy After All These Years') сборка от Apr1 2011 21:01:49
Writing library: libebml v1.2.0 + libmatroska v1.1.0

Video
ID: 1
Format: AVC
Format/Info: Advanced Video Codec
Format profile: High@L4.1
Format settings, CABAC: Yes
Format settings, ReFrames: 8 frames
Codec ID: V_MPEG4/ISO/AVC
Duration: 1h 53mn
Bit rate: 1 457 Kbps
Width: 1 024 pixels
Height: 416 pixels
Display aspect ratio: 2.462
Frame rate: 23.976 fps
Color space: YUV
Chroma subsampling: 4:2:0
Bit depth: 8 bits
Scan type: Progressive
Bits/(Pixel*Frame): 0.143
Stream size: 1.12 GiB (77%)
Writing library: x264 core 115 r1937 aa21558
Encoding settings: cabac=1 / ref=8 / deblock=1:-1:-1 / analyse=0x3:0x133 / me=umh / subme=9 / psy=1 / psy_rd=1.00:0.10 / mixed_ref=1 / me_range=16 / chroma_me=1 / trellis=2 / 8x8dct=1 / cqm=0 / deadzone=21,11 / fast_pskip=1 / chroma_qp_offset=-3 / threads=6 / sliced_threads=0 / nr=0 / decimate=1 / interlaced=0 / bluray_compat=0 / constrained_intra=0 / bframes=3 / b_pyramid=2 / b_adapt=2 / b_bias=0 / direct=3 / weightb=1 / open_gop=0 / weightp=2 / keyint=250 / keyint_min=23 / scenecut=40 / intra_refresh=0 / rc_lookahead=60 / rc=2pass / mbtree=1 / bitrate=1457 / ratetol=1.0 / qcomp=0.60 / qpmin=0 / qpmax=69 / qpstep=4 / cplxblur=20.0 / qblur=0.5 / ip_ratio=1.40 / aq=1:1.00

Audio
ID: 2
Format: AC-3
Format/Info: Audio Coding 3
Mode extension: CM (complete main)
Codec ID: A_AC3
Duration: 1h 53mn
Bit rate mode: Constant
Bit rate: 384 Kbps
Channel(s): 6 channels
Channel positions: Front: L C R, Side: L R, LFE
Sampling rate: 48.0 KHz
Bit depth: 16 bits
Compression mode: Lossy
Stream size: 311 MiB (21%)




















Поделиться:




реклама партнёра


Вернуться к началу
 Профиль Отправить личное сообщение  
 
   Похожие торренты   Автор   Торрент   Размер 
В этой теме нет новых непрочитанных сообщений. Смерч / Twister [боевик, триллер, драма, приключения, 1996] BDRip 720p, Dub

salma3

21 | 2

5.39 ГБ

В этой теме нет новых непрочитанных сообщений. Смерч / Twister [боевик, триллер, драма, приключения, 1996] BDRemux 1080p, Dub+Mvo+Avo+Sub

salma3

20 | 14

24.12 ГБ

В этой теме нет новых непрочитанных сообщений. Адский смерч / Fire Twister [фантастика, боевик, триллер, приключения, 2015] HDRip, Mvo [Официальный звук]

salma3

2232 | 271

1.37 ГБ

В этой теме нет новых непрочитанных сообщений. Под прицелом / Silent Trigger [боевик, триллер, драма, 1996] HDRip, Avo

salma3

70 | 3

743.09 МБ

В этой теме нет новых непрочитанных сообщений. Под прицелом / Silent Trigger [Боевик, триллер, драма, 1996] HDRip, Dvo

salma3

49 | 4

1.46 ГБ

В этой теме нет новых непрочитанных сообщений. Под прицелом / Silent Trigger [Боевик, триллер, драма, 1996] HDRip-AVC, Dvo+Avo+Sub

salma3

75 | 8

2.18 ГБ

В этой теме нет новых непрочитанных сообщений. Под прицелом / Silent Trigger [боевик, триллер, драма, 1996] HDRip, Dvo+Avo

salma3

101 | 5

1.46 ГБ


Начать новую тему Ответить на тему  [ 1 сообщение ] 




Для Мосгорсуда, Роскомнадзора и рекламодателей:: mosgorsud-torrent[собачка]yandex.ru