Торрент файл
скачать торрент магнет ссылка Добавлен: 22 янв 2012, 13:13
Размер: 1.37 ГБ
Сидеров: 69
Личеров: 10
Автор

СообщениеДобавлено: 22 янв 2012, 13:13 

Не в сети
Супермодератор
Аватара пользователя
Дата регистрации:
11 апр 2010, 18:10
Спасибо: 5799 / 7
Сообщения: 56779
Последний дракон: В поисках магической жемчужины / The Dragon Pearl


Перевод: Профессиональный (многоголосый, закадровый), cубтитры: отсутствуют

Формат: HDRip-AVC, MKV, H.264, AC3

Страна: Австралия

Режиссер: Марио Андриччион

Жанр: детектив, приключения, семейный

Продолжительность: 01:34:54

Год выпуска: 2011

В ролях: Сэм Нил, Ли Лин Джин, Луис Корбетт, Ванг Джи, Роберт Маммоне, Джордан Чан, Чен Бао Йуан

Описание: По древним китайским манускриптам ученые-археологи узнают, что священное животное Поднебесной империи уже не одно тысячелетие прячется в одной из многочисленных пещер, охраняя магическую жемчужину. Экспедиции, снаряженные на его поиски, не имеют успеха. Но неожиданно мифическое животное находят дети — сын и дочь археологов. Только они могут помочь Дракону обрести свободу…

[/field]

Видео: 1024x552 (2.40:1), 23.976 fps, AVC, х264, High@L4.1, ~1 676 Kbps 0.124 bit/pixel
Аудио: 48 kHz, AC3 Dolby Digital, 3/2 (L,C,R,l,r) + LFE ch, ~384.00 kbps avg

Доп. информация: Премьера (РФ) 7 июля 2011

Релиз группа:

General
Unique ID: 189053675801891959892209988201486558603 (0x8E3A69DD414A7F3495B8AF8A5971258B)
Complete name: E:\Загрузки\Posledniy.drakon.V.poiskah.magicheskoy.zhemchuzhiny.2011.x264.BDRip.(AVC).ExKinoRay.mkv
Format: Matroska
File size: 1.37 GiB
Duration: 1h 34mn
Overall bit rate: 2 063 Kbps
Encoded date: UTC 2011-07-12 01:51:45
Writing application: mkvmerge v2.3.0 ('Freak U') built on Sep8 2008 18:32:16
Writing library: libebml v0.7.7 + libmatroska v0.8.1

Video
ID: 1
Format: AVC
Format/Info: Advanced Video Codec
Format profile: High@L4.1
Format settings, CABAC: Yes
Format settings, ReFrames: 4 frames
Format settings, GOP: N=1
Codec ID: V_MPEG4/ISO/AVC
Duration: 1h 34mn
Bit rate: 1 676 Kbps
Width: 1 024 pixels
Height: 552 pixels
Display aspect ratio: 1.855
Frame rate: 23.976 fps
Color space: YUV
Chroma subsampling: 4:2:0
Bit depth: 8 bits
Scan type: Progressive
Bits/(Pixel*Frame): 0.124
Stream size: 1.09 GiB (79%)
Writing library: x264 core 115 r1937 aa21558
Encoding settings: cabac=1 / ref=2 / deblock=1:-1:-1 / analyse=0x3:0x113 / me=hex / subme=6 / psy=1 / psy_rd=1.00:0.10 / mixed_ref=0 / me_range=16 / chroma_me=1 / trellis=1 / 8x8dct=1 / cqm=0 / deadzone=21,11 / fast_pskip=1 / chroma_qp_offset=-3 / threads=6 / sliced_threads=0 / nr=0 / decimate=1 / interlaced=0 / bluray_compat=0 / constrained_intra=0 / bframes=2 / b_pyramid=2 / b_adapt=2 / b_bias=0 / direct=3 / weightb=1 / open_gop=0 / weightp=1 / keyint=250 / keyint_min=23 / scenecut=40 / intra_refresh=0 / rc_lookahead=30 / rc=2pass / mbtree=1 / bitrate=1676 / ratetol=1.0 / qcomp=0.60 / qpmin=15 / qpmax=47 / qpstep=3 / cplxblur=20.0 / qblur=0.5 / ip_ratio=1.40 / aq=1:1.10
Language: English

Audio
ID: 2
Format: AC-3
Format/Info: Audio Coding 3
Mode extension: CM (complete main)
Codec ID: A_AC3
Duration: 1h 34mn
Bit rate mode: Constant
Bit rate: 384 Kbps
Channel(s): 6 channels
Channel positions: Front: L C R, Side: L R, LFE
Sampling rate: 48.0 KHz
Bit depth: 16 bits
Compression mode: Lossy
Stream size: 261 MiB (19%)








Поделиться:




реклама партнёра


Вернуться к началу
 Профиль Отправить личное сообщение  
 
   Похожие торренты   Автор   Торрент   Размер 
В этой теме нет новых непрочитанных сообщений. Пит и его дракон / Pete's Dragon [фэнтези, приключения, семейный, 2016] HDRip, Dub [лицензия]

salma3

334 | 12

2.05 ГБ

В этой теме нет новых непрочитанных сообщений. Пит и его дракон / Pete's Dragon [фэнтези, приключения, семейный, 2016] HDRip-AVC, Dub [лицензия]

salma3

540 | 10

1.45 ГБ

В этой теме нет новых непрочитанных сообщений. Пит и его дракон / Pete's Dragon [фэнтези, приключения, семейный, 2016] HDRip, Dub [лицензия]

salma3

837 | 24

1.37 ГБ

В этой теме нет новых непрочитанных сообщений. Последний дракон / The Last Dragon [драма, комедия, музыка, боевик, 1985] HDRip-AVC, Dvo

salma3

21 | 1

1.45 ГБ

В этой теме нет новых непрочитанных сообщений. Пит и его дракон / Pete's Dragon [Фэнтези, приключения, семейный, 2016] Blu-Ray EUR 1080p, Dub [лицензия]

salma3

181 | 128

38.28 ГБ

В этой теме нет новых непрочитанных сообщений. Пит и его дракон / Pete's Dragon [фэнтези, приключения, семейный, 2016] BDRip 1080p, Dub [лицензия]

salma3

4439 | 389

9.67 ГБ

В этой теме нет новых непрочитанных сообщений. Пит и его дракон / Pete's Dragon (фэнтези, приключения, семейный, 2016) BDRip от ExKinoRay | Лицензия

marya111

535 | 61

1.46 ГБ


Начать новую тему Ответить на тему  [ 1 сообщение ] 




Для Мосгорсуда, Роскомнадзора и рекламодателей:: mosgorsud-torrent[собачка]yandex.ru